Featured TV Shows


Wentworth S06E03

Posted By: Tavaz
SD / HDTV IMDb
Wentworth S06E03

Wentworth S06E03
HDTV | MKV | 720x404 | German | H264 @ 776 kbps | AC-3 @ 192 kbps | 48 min 23 s | 336 MiB
Genre: Krimi, Drama

Nach der Verurteilung wegen Mordes an ihrem Ehemann kommt Bea Smith (Danielle Cormack) ins berüchtigte Frauengefängnis Wentworth. In der beklemmenden Haftanstalt herrschen harsche Zustände, denn die Direktorin Meg Jackson (Catherine McClements) macht sich durchaus gerne die Insassen und deren Machtkämpfe zunutze, um die Kontrolle zu behalten. So muss sich Bea schnell akklimatisieren, um nicht unter die Räder zu kommen. Besonders schwer fällt ihr allerdings, dass sie durch die Gefängnismauern von ihrer Tochter getrennt ist.

Wo viel Schatten ist, findet sich aber auch mancher Lichtblick: Denn manchmal halten die Frauen hinter Gittern auch zusammen und spenden einander Trost und Hilfe …

WE S06E02.GERMAN.mkv (335.6 MB)
WE S06E03.GERMAN.mkv (300.9 MB)



General
Unique ID : 218770942513243201308157289703447230445 (0xA495C03BF3EBB70C3C3E49F04FBC77ED)
Complete name : ./We Bea Smith S06E02E03 German/WE S06E02.GERMAN.mkv
Format : Matroska
Format version : Version 2
File size : 336 MiB
Duration : 48 min 23 s
Overall bit rate : 970 kb/s
Encoded date : UTC 2018-11-01 19:13:56
Writing application : mkvmerge v28.1.0 ('Morning Child') 64-bit
Writing library : libebml v1.3.6 + libmatroska v1.4.9

Video
ID : 1
Format : AVC
Format/Info : Advanced Video Codec
Format profile : High@L3.1
Format settings : CABAC / 5 Ref Frames
Format settings, CABAC : Yes
Format settings, RefFrames : 5 frames
Codec ID : V_MPEG4/ISO/AVC
Duration : 48 min 22 s
Bit rate : 776 kb/s
Width : 720 pixels
Height : 404 pixels
Display aspect ratio : 16:9
Frame rate mode : Constant
Frame rate : 25.000 FPS
Color space : YUV
Chroma subsampling : 4:2:0
Bit depth : 8 bits
Scan type : Progressive
Bits/(Pixel*Frame) : 0.107
Stream size : 269 MiB (80%)
Writing library : x264 core 157 r2935 545de2f
Encoding settings : cabac=1 / ref=5 / deblock=1:-2:-2 / analyse=0x3:0x113 / me=umh / subme=8 / psy=1 / psy_rd=1.00:0.00 / mixed_ref=1 / me_range=16 / chroma_me=1 / trellis=2 / 8x8dct=1 / cqm=0 / deadzone=21,11 / fast_pskip=0 / chroma_qp_offset=-2 / threads=12 / lookahead_threads=2 / sliced_threads=0 / nr=0 / decimate=1 / interlaced=0 / bluray_compat=0 / constrained_intra=0 / bframes=3 / b_pyramid=2 / b_adapt=2 / b_bias=0 / direct=3 / weightb=1 / open_gop=0 / weightp=2 / keyint=250 / keyint_min=25 / scenecut=40 / intra_refresh=0 / rc_lookahead=50 / rc=crf / mbtree=1 / crf=19.0 / qcomp=0.60 / qpmin=0 / qpmax=69 / qpstep=4 / ip_ratio=1.40 / aq=1:0.80
Default : Yes
Forced : No

Audio
ID : 2
Format : AC-3
Format/Info : Audio Coding 3
Format settings, Endianness : Big
Codec ID : A_AC3
Duration : 48 min 23 s
Bit rate mode : Constant
Bit rate : 192 kb/s
Channel(s) : 2 channels
Channel positions : Front: L R
Sampling rate : 48.0 kHz
Frame rate : 31.250 FPS (1536 SPF)
Bit depth : 16 bits
Compression mode : Lossy
Stream size : 66.4 MiB (20%)
Language : German
Service kind : Complete Main
Default : Yes
Forced : No





Wentworth S06E03


Wentworth S06E03


Wentworth S06E03


Wentworth S06E03


Wentworth S06E03

All episodes