Featured TV Shows


Wentworth S06E04

Posted By: Tavaz
SD / WEBRip IMDb
Wentworth S06E04

Wentworth S06E04
WEBRip | MOV | 720x404 | English | H264 @ 1000 kbps | AAC @ 127 kbps | 44 min 3 s | 351 MiB
Genre: Drama

Bea Smith is locked up while awaiting trial for the attempted murder of her husband and must learn how life works in prison. A modern adaptation and sequel of the iconic Prisoner series.

7f2ac36531bf45d0a029c4ae4a8cc14c.mp4 (351.5 MB)



General
Complete name : ./7f2ac36531bf45d0a029c4ae4a8cc14c.mp4
Format : MPEG-4
Format profile : Base Media
Codec ID : isom (isom/avc1/iso6)
File size : 351 MiB
Duration : 44 min 3 s
Overall bit rate mode : Variable
Overall bit rate : 1 115 kb/s
Encoded date : UTC 2018-07-11 04:53:24
Tagged date : UTC 2018-07-11 04:53:24

Video
ID : 1
Format : AVC
Format/Info : Advanced Video Codec
Format profile : High@L3.1
Format settings : CABAC / 4 Ref Frames
Format settings, CABAC : Yes
Format settings, RefFrames : 4 frames
Codec ID : avc1
Codec ID/Info : Advanced Video Coding
Duration : 44 min 3 s
Bit rate : 1 000 kb/s
Maximum bit rate : 5 667 kb/s
Width : 720 pixels
Height : 404 pixels
Display aspect ratio : 16:9
Frame rate mode : Constant
Frame rate : 25.000 FPS
Color space : YUV
Chroma subsampling : 4:2:0
Bit depth : 8 bits
Scan type : Progressive
Bits/(Pixel*Frame) : 0.138
Stream size : 310 MiB (88%)
Writing library : x264 core 148 r2638 7599210
Encoding settings : cabac=1 / ref=3 / deblock=1:0:0 / analyse=0x3:0x113 / me=hex / subme=7 / psy=1 / psy_rd=1.00:0.00 / mixed_ref=1 / me_range=16 / chroma_me=1 / trellis=1 / 8x8dct=1 / cqm=0 / deadzone=21,11 / fast_pskip=1 / chroma_qp_offset=-2 / threads=6 / lookahead_threads=1 / sliced_threads=0 / nr=0 / decimate=1 / interlaced=0 / bluray_compat=0 / constrained_intra=0 / bframes=3 / b_pyramid=2 / b_adapt=1 / b_bias=0 / direct=1 / weightb=1 / open_gop=0 / weightp=2 / keyint=250 / keyint_min=25 / scenecut=40 / intra_refresh=0 / rc_lookahead=40 / rc=abr / mbtree=1 / bitrate=1000 / ratetol=1.0 / qcomp=0.60 / qpmin=0 / qpmax=69 / qpstep=4 / vbv_maxrate=17500 / vbv_bufsize=17500 / nal_hrd=none / filler=0 / ip_ratio=1.40 / aq=1:1.00
Encoded date : UTC 2018-07-11 04:53:24
Tagged date : UTC 2018-07-11 04:53:32

Audio
ID : 2
Format : AAC
Format/Info : Advanced Audio Codec
Format profile : LC
Codec ID : mp4a-40-2
Duration : 44 min 3 s
Bit rate mode : Variable
Bit rate : 128 kb/s
Maximum bit rate : 132 kb/s
Channel(s) : 2 channels
Channel positions : Front: L R
Sampling rate : 48.0 kHz
Frame rate : 46.875 FPS (1024 SPF)
Compression mode : Lossy
Stream size : 40.3 MiB (11%)
Language : English
Encoded date : UTC 2018-07-11 04:24:20
Tagged date : UTC 2018-07-11 04:53:32





Wentworth S06E04


Wentworth S06E04


Wentworth S06E04


Wentworth S06E04


Wentworth S06E04

All episodes