Featured TV Shows


Wentworth S06E04

Posted By: Tavaz
SD / BDRip IMDb
Wentworth S06E04

Wentworth S06E04
BluRay Remux | MKV | 1920x1080 | English | H264 @ 25554 kbps | DTS | 44 min 11 s | 8.49 GiB
Subtitles: English
Genre: Crime, Drama

Bea Smith is locked up while awaiting trial for the attempted murder of her husband and must learn how life works in prison. A modern adaptation and sequel of the iconic Prisoner series.

Wentworth.S06E04.Winter.is.Here.1080i.BluRay.REMUX.AVC.DTS-HD.MA.5.1-EPSiLON=0152fd9079d71585625bb167d389b2437259144a.part1.rar (4.5 GB)
Wentworth.S06E04.Winter.is.Here.1080i.BluRay.REMUX.AVC.DTS-HD.MA.5.1-EPSiLON=0152fd9079d71585625bb167d389b2437259144a.part2.rar (4.1 GB)



General
Unique ID : 166050593467121672689333693774875427395 (0x7CEC2E57996F7B0FCB963904DC598243)
Complete name : ./Wentworth.S06E04.Winter.is.Here.1080i.BluRay.REMUX.AVC.DTS-HD.MA.5.1-EPSiLON.mkv
Format : Matroska
Format version : Version 4 / Version 2
File size : 8.49 GiB
Duration : 44 min 11 s
Overall bit rate mode : Variable
Overall bit rate : 27.5 Mb/s
Movie name : Wentworth - S06E04 - Winter is Here
Encoded date : UTC 2018-10-01 10:17:16
Writing application : mkvmerge v27.0.0 ('Metropolis') 64-bit
Writing library : libebml v1.3.6 + libmatroska v1.4.9

Video
ID : 1
Format : AVC
Format/Info : Advanced Video Codec
Format profile : High@L4.1
Format settings : CABAC / 4 Ref Frames
Format settings, CABAC : Yes
Format settings, RefFrames : 4 frames
Codec ID : V_MPEG4/ISO/AVC
Duration : 44 min 11 s
Bit rate mode : Variable
Bit rate : 25.6 Mb/s
Maximum bit rate : 38.0 Mb/s
Width : 1 920 pixels
Height : 1 080 pixels
Display aspect ratio : 16:9
Frame rate mode : Constant
Frame rate : 25.000 FPS
Color space : YUV
Chroma subsampling : 4:2:0
Bit depth : 8 bits
Scan type : MBAFF
Scan type, store method : Interleaved fields
Scan order : Top Field First
Bits/(Pixel*Frame) : 0.493
Stream size : 7.89 GiB (93%)
Title : MPEG-4 AVC Video / 25993 kbps / 1080i / 25 fps / 16:9 / High Profile 4.1
Language : English
Default : Yes
Forced : No

Audio
ID : 2
Format : DTS
Format/Info : Digital Theater Systems
Format profile : MA / Core
Mode : 16
Format settings, Endianness : Big
Codec ID : A_DTS
Duration : 44 min 11 s
Bit rate mode : Variable / Constant
Bit rate : 1 920 kb/s / 1 509 kb/s
Channel(s) : 6 channels
Channel positions : Front: L C R, Side: L R, LFE
Sampling rate : 48.0 kHz
Frame rate : 93.750 FPS (512 SPF)
Bit depth : 16 bits
Compression mode : Lossless / Lossy
Stream size : 603 MiB (7%)
Title : DTS-HD Master Audio / 5.1 / 48 kHz / 1907 kbps / 16-bit
Language : English
Default : Yes
Forced : No

Text
ID : 3
Format : PGS
Codec ID : S_HDMV/PGS
Codec ID/Info : Picture based subtitle format used on BDs/HD-DVDs
Duration : 43 min 8 s
Bit rate : 50.1 kb/s
Count of elements : 1680
Stream size : 15.4 MiB (0%)
Title : SDH
Language : English
Default : No
Forced : No

Menu
00:00:00.000 : en:Chapter 1
00:07:28.280 : en:Chapter 2
00:15:50.400 : en:Chapter 3
00:22:17.520 : en:Chapter 4
00:29:50.720 : en:Chapter 5
00:36:49.560 : en:Chapter 6





Wentworth S06E04


Wentworth S06E04


Wentworth S06E04


Wentworth S06E04


Wentworth S06E04

All episodes