Featured TV Shows


Wentworth S06E05

Posted By: Tavaz
SD / BDRip IMDb
Wentworth S06E05

Wentworth S06E05
BluRay Remux | MKV | 1920x1080 | English | H264 @ 24569 kbps | DTS | 47 min 3 s | 8.72 GiB
Subtitles: English
Genre: Crime, Drama

Bea Smith is locked up while awaiting trial for the attempted murder of her husband and must learn how life works in prison. A modern adaptation and sequel of the iconic Prisoner series.

Wentworth.S06E05.Bitter.Pill.1080i.BluRay.REMUX.AVC.DTS-HD.MA.5.1-EPSiLON=34b5c669c4043c9e9dbf39e3159f4b3a34ecd3f1.part1.rar (4.6 GB)
Wentworth.S06E05.Bitter.Pill.1080i.BluRay.REMUX.AVC.DTS-HD.MA.5.1-EPSiLON=34b5c669c4043c9e9dbf39e3159f4b3a34ecd3f1.part2.rar (4.2 GB)



General
Unique ID : 236412022901200536370892038938569733968 (0xB1DB4CA6416B776F9AC2179E18CBF750)
Complete name : ./Wentworth.S06E05.Bitter.Pill.1080i.BluRay.REMUX.AVC.DTS-HD.MA.5.1-EPSiLON.mkv
Format : Matroska
Format version : Version 4 / Version 2
File size : 8.72 GiB
Duration : 47 min 3 s
Overall bit rate mode : Variable
Overall bit rate : 26.5 Mb/s
Movie name : Wentworth - S06E05 - Bitter Pill
Encoded date : UTC 2018-10-01 15:44:23
Writing application : mkvmerge v27.0.0 ('Metropolis') 64-bit
Writing library : libebml v1.3.6 + libmatroska v1.4.9

Video
ID : 1
Format : AVC
Format/Info : Advanced Video Codec
Format profile : High@L4.1
Format settings : CABAC / 4 Ref Frames
Format settings, CABAC : Yes
Format settings, RefFrames : 4 frames
Codec ID : V_MPEG4/ISO/AVC
Duration : 47 min 3 s
Bit rate mode : Variable
Bit rate : 24.6 Mb/s
Maximum bit rate : 38.0 Mb/s
Width : 1 920 pixels
Height : 1 080 pixels
Display aspect ratio : 16:9
Frame rate mode : Constant
Frame rate : 25.000 FPS
Color space : YUV
Chroma subsampling : 4:2:0
Bit depth : 8 bits
Scan type : MBAFF
Scan type, store method : Interleaved fields
Scan order : Top Field First
Bits/(Pixel*Frame) : 0.474
Stream size : 8.08 GiB (93%)
Title : MPEG-4 AVC Video / 24998 kbps / 1080i / 25 fps / 16:9 / High Profile 4.1
Language : English
Default : Yes
Forced : No

Audio
ID : 2
Format : DTS
Format/Info : Digital Theater Systems
Format profile : MA / Core
Mode : 16
Format settings, Endianness : Big
Codec ID : A_DTS
Duration : 47 min 3 s
Bit rate mode : Variable / Constant
Bit rate : 1 920 kb/s / 1 509 kb/s
Channel(s) : 6 channels
Channel positions : Front: L C R, Side: L R, LFE
Sampling rate : 48.0 kHz
Frame rate : 93.750 FPS (512 SPF)
Bit depth : 16 bits
Compression mode : Lossless / Lossy
Stream size : 648 MiB (7%)
Title : DTS-HD Master Audio / 5.1 / 48 kHz / 1924 kbps / 16-bit
Language : English
Default : Yes
Forced : No

Text
ID : 3
Format : PGS
Codec ID : S_HDMV/PGS
Codec ID/Info : Picture based subtitle format used on BDs/HD-DVDs
Duration : 46 min 47 s
Bit rate : 45.2 kb/s
Count of elements : 1726
Stream size : 15.1 MiB (0%)
Title : SDH
Language : English
Default : No
Forced : No

Menu
00:00:00.000 : en:Chapter 1
00:08:37.200 : en:Chapter 2
00:15:38.640 : en:Chapter 3
00:22:56.440 : en:Chapter 4
00:30:10.440 : en:Chapter 5
00:37:28.680 : en:Chapter 6





Wentworth S06E05


Wentworth S06E05


Wentworth S06E05


Wentworth S06E05


Wentworth S06E05

All episodes