Featured TV Shows


Wentworth S06E06

Posted By: Tavaz
SD / HDTV IMDb
Wentworth S06E06

Wentworth S06E06
HDTV | MKV | 720x404 | German | H264 @ 646 kbps | AC-3 @ 192 kbps | 47 min 1 s | 283 MiB
Genre: Krimi, Drama

Nach der Verurteilung wegen Mordes an ihrem Ehemann kommt Bea Smith (Danielle Cormack) ins berüchtigte Frauengefängnis Wentworth. In der beklemmenden Haftanstalt herrschen harsche Zustände, denn die Direktorin Meg Jackson (Catherine McClements) macht sich durchaus gerne die Insassen und deren Machtkämpfe zunutze, um die Kontrolle zu behalten. So muss sich Bea schnell akklimatisieren, um nicht unter die Räder zu kommen. Besonders schwer fällt ihr allerdings, dass sie durch die Gefängnismauern von ihrer Tochter getrennt ist.

Wo viel Schatten ist, findet sich aber auch mancher Lichtblick: Denn manchmal halten die Frauen hinter Gittern auch zusammen und spenden einander Trost und Hilfe …

WE S06E06.GERMAN.mkv (266.1 MB)
WE S06E05.GERMAN.mkv (282.5 MB)
WE S06E04.GERMAN.mkv (266.5 MB)



General
Unique ID : 147325647567416064883372479166836440693 (0x6ED5E33B3CA2B12F8FF02CEB6770FE75)
Complete name : ./We Bea Smith S06E04E05E06 German/WE S06E05.GERMAN.mkv
Format : Matroska
Format version : Version 2
File size : 283 MiB
Duration : 47 min 1 s
Overall bit rate : 840 kb/s
Encoded date : UTC 2018-11-02 21:05:02
Writing application : mkvmerge v28.2.0 ('The Awakening') 64-bit
Writing library : libebml v1.3.6 + libmatroska v1.4.9

Video
ID : 1
Format : AVC
Format/Info : Advanced Video Codec
Format profile : High@L3.1
Format settings : CABAC / 5 Ref Frames
Format settings, CABAC : Yes
Format settings, RefFrames : 5 frames
Codec ID : V_MPEG4/ISO/AVC
Duration : 47 min 1 s
Bit rate : 646 kb/s
Width : 720 pixels
Height : 404 pixels
Display aspect ratio : 16:9
Frame rate mode : Constant
Frame rate : 25.000 FPS
Color space : YUV
Chroma subsampling : 4:2:0
Bit depth : 8 bits
Scan type : Progressive
Bits/(Pixel*Frame) : 0.089
Stream size : 217 MiB (77%)
Writing library : x264 core 157 r2935 545de2f
Encoding settings : cabac=1 / ref=5 / deblock=1:-2:-2 / analyse=0x3:0x113 / me=umh / subme=8 / psy=1 / psy_rd=1.00:0.00 / mixed_ref=1 / me_range=16 / chroma_me=1 / trellis=2 / 8x8dct=1 / cqm=0 / deadzone=21,11 / fast_pskip=0 / chroma_qp_offset=-2 / threads=12 / lookahead_threads=2 / sliced_threads=0 / nr=0 / decimate=1 / interlaced=0 / bluray_compat=0 / constrained_intra=0 / bframes=3 / b_pyramid=2 / b_adapt=2 / b_bias=0 / direct=3 / weightb=1 / open_gop=0 / weightp=2 / keyint=250 / keyint_min=25 / scenecut=40 / intra_refresh=0 / rc_lookahead=50 / rc=crf / mbtree=1 / crf=19.0 / qcomp=0.60 / qpmin=0 / qpmax=69 / qpstep=4 / ip_ratio=1.40 / aq=1:0.80
Default : Yes
Forced : No

Audio
ID : 2
Format : AC-3
Format/Info : Audio Coding 3
Format settings, Endianness : Big
Codec ID : A_AC3
Duration : 47 min 1 s
Bit rate mode : Constant
Bit rate : 192 kb/s
Channel(s) : 2 channels
Channel positions : Front: L R
Sampling rate : 48.0 kHz
Frame rate : 31.250 FPS (1536 SPF)
Bit depth : 16 bits
Compression mode : Lossy
Stream size : 64.6 MiB (23%)
Language : German
Service kind : Complete Main
Default : Yes
Forced : No





Wentworth S06E06


Wentworth S06E06


Wentworth S06E06


Wentworth S06E06


Wentworth S06E06

All episodes