Featured TV Shows


Wentworth S06E08

Posted By: Tavaz
1080p (FullHD) / HDTV IMDb
Wentworth S06E08

Wentworth S06E08
WEB-DL | MKV | 1920x1080 | German / English | H264 @ 4501 kbps | AC-3 @ 384 kbps | 47 min 26 s | 1.68 GiB
Genre: Krimi, Drama

Nach der Verurteilung wegen Mordes an ihrem Ehemann kommt Bea Smith (Danielle Cormack) ins berüchtigte Frauengefängnis Wentworth. In der beklemmenden Haftanstalt herrschen harsche Zustände, denn die Direktorin Meg Jackson (Catherine McClements) macht sich durchaus gerne die Insassen und deren Machtkämpfe zunutze, um die Kontrolle zu behalten. So muss sich Bea schnell akklimatisieren, um nicht unter die Räder zu kommen. Besonders schwer fällt ihr allerdings, dass sie durch die Gefängnismauern von ihrer Tochter getrennt ist.

Wo viel Schatten ist, findet sich aber auch mancher Lichtblick: Denn manchmal halten die Frauen hinter Gittern auch zusammen und spenden einander Trost und Hilfe …

Wentworth.S06E08.GERMAN.DL.1080p.HDTV.h264-ACED.mkv (1.7 GB)



General
Unique ID : 304264480339793785974110676511529458933 (0xE4E7351632FF451B0F11A840E2C95CF5)
Complete name : ./Wentworth.S06E08.GERMAN.DL.1080p.HDTV.h264-ACED.mkv
Format : Matroska
Format version : Version 2
File size : 1.68 GiB
Duration : 47 min 26 s
Overall bit rate : 5 081 kb/s
Encoded date : UTC 2018-11-05 19:05:26
Writing application : mkvmerge v28.2.0 ('The Awakening') 64-bit
Writing library : libebml v1.3.6 + libmatroska v1.4.9

Video
ID : 1
Format : AVC
Format/Info : Advanced Video Codec
Format profile : High@L4
Format settings : CABAC / 4 Ref Frames
Format settings, CABAC : Yes
Format settings, RefFrames : 4 frames
Codec ID : V_MPEG4/ISO/AVC
Duration : 47 min 26 s
Bit rate : 4 501 kb/s
Width : 1 920 pixels
Height : 1 080 pixels
Display aspect ratio : 16:9
Frame rate mode : Variable
Frame rate : 50.000 FPS
Original frame rate : 25.000 FPS
Standard : Component
Color space : YUV
Chroma subsampling : 4:2:0
Bit depth : 8 bits
Scan type : Interlaced
Scan type, store method : Separated fields
Scan order : Top Field First
Bits/(Pixel*Frame) : 0.043
Stream size : 1.49 GiB (89%)
Default : No
Forced : No
Color range : Limited
Color primaries : BT.709
Transfer characteristics : BT.709
Matrix coefficients : BT.709

Audio #1
ID : 2
Format : AC-3
Format/Info : Audio Coding 3
Format settings, Endianness : Big
Codec ID : A_AC3
Duration : 47 min 26 s
Bit rate mode : Constant
Bit rate : 384 kb/s
Channel(s) : 2 channels
Channel positions : Front: L R
Sampling rate : 48.0 kHz
Frame rate : 31.250 FPS (1536 SPF)
Bit depth : 16 bits
Compression mode : Lossy
Stream size : 130 MiB (8%)
Language : German
Service kind : Complete Main
Default : Yes
Forced : No

Audio #2
ID : 3
Format : AC-3
Format/Info : Audio Coding 3
Format settings, Endianness : Big
Codec ID : A_AC3
Duration : 47 min 26 s
Bit rate mode : Constant
Bit rate : 192 kb/s
Channel(s) : 2 channels
Channel positions : Front: L R
Sampling rate : 48.0 kHz
Frame rate : 31.250 FPS (1536 SPF)
Bit depth : 16 bits
Compression mode : Lossy
Stream size : 65.2 MiB (4%)
Language : English
Service kind : Complete Main
Default : No
Forced : No





Wentworth S06E08


Wentworth S06E08


Wentworth S06E08


Wentworth S06E08


Wentworth S06E08

All episodes