Featured TV Shows


Wentworth S06E09

Posted By: Tavaz
SD / WEBRip IMDb
Wentworth S06E09

Wentworth S06E09
WEBRip | MOV | 1024x576 | H264 @ 1000 kbps | AAC @ 165 kbps | 46 min 38 s | 386 MiB
Genre: Drama

Bea Smith is locked up while awaiting trial for the attempted murder of her husband and must learn how life works in prison. A modern adaptation and sequel of the iconic Prisoner series.

3901f2c1f4f64673b908a54bf593cb15.mp4 (385.9 MB)



General
Complete name : ./3901f2c1f4f64673b908a54bf593cb15.mp4
Format : MPEG-4
Format profile : Base Media
Codec ID : isom (isom/iso2/avc1/mp41)
File size : 386 MiB
Duration : 46 min 38 s
Overall bit rate mode : Variable
Overall bit rate : 1 157 kb/s
Encoded date : UTC 2018-08-14 10:28:17
Tagged date : UTC 2018-08-14 10:28:17
Writing application : Lavf54.63.104

Video
ID : 1
Format : AVC
Format/Info : Advanced Video Codec
Format profile : Main@L3.1
Format settings : CABAC / 1 Ref Frames
Format settings, CABAC : Yes
Format settings, RefFrames : 1 frame
Codec ID : avc1
Codec ID/Info : Advanced Video Coding
Duration : 46 min 38 s
Bit rate : 1 000 kb/s
Width : 1 024 pixels
Height : 576 pixels
Display aspect ratio : 16:9
Frame rate mode : Variable
Frame rate : 25.000 FPS
Minimum frame rate : 12.500 FPS
Maximum frame rate : 25.000 FPS
Color space : YUV
Chroma subsampling : 4:2:0
Bit depth : 8 bits
Scan type : Progressive
Bits/(Pixel*Frame) : 0.068
Stream size : 329 MiB (85%)
Writing library : x264 core 129
Encoding settings : cabac=1 / ref=1 / deblock=1:0:0 / analyse=0x1:0x131 / me=dia / subme=2 / psy=1 / psy_rd=1.00:0.00 / mixed_ref=0 / me_range=16 / chroma_me=1 / trellis=0 / 8x8dct=0 / cqm=0 / deadzone=21,11 / fast_pskip=1 / chroma_qp_offset=0 / threads=4 / lookahead_threads=1 / sliced_threads=0 / nr=0 / decimate=1 / interlaced=0 / bluray_compat=0 / constrained_intra=0 / bframes=0 / weightp=2 / keyint=250 / keyint_min=25 / scenecut=40 / intra_refresh=0 / rc_lookahead=40 / rc=abr / mbtree=1 / bitrate=1000 / ratetol=1.0 / qcomp=0.60 / qpmin=10 / qpmax=51 / qpstep=4 / ip_ratio=1.41 / aq=1:1.00
Encoded date : UTC 2018-08-14 10:28:17
Tagged date : UTC 2018-08-14 10:28:17

Audio
ID : 2
Format : AAC
Format/Info : Advanced Audio Codec
Format profile : LC
Codec ID : mp4a-40-2
Duration : 46 min 38 s
Duration_FirstFrame : 64 ms
Bit rate mode : Variable
Bit rate : 165 kb/s
Maximum bit rate : 192 kb/s
Channel(s) : 2 channels
Channel positions : Front: L R
Sampling rate : 48.0 kHz
Frame rate : 46.875 FPS (1024 SPF)
Compression mode : Lossy
Stream size : 55.2 MiB (14%)
Default : Yes
Alternate group : 1
Encoded date : UTC 2018-08-14 10:28:17
Tagged date : UTC 2018-08-14 10:28:17





Wentworth S06E09


Wentworth S06E09


Wentworth S06E09


Wentworth S06E09


Wentworth S06E09

All episodes