Featured TV Shows


Wentworth S06E09

Posted By: Tavaz
720p (HD) / HDTV IMDb
Wentworth S06E09

Wentworth S06E09
HDTV | MKV | 1280x720 | German | H264 @ 2277 kbps | AC-3 @ 384 kbps | 46 min 25 s | 884 MiB
Genre: Krimi, Drama

Nach der Verurteilung wegen Mordes an ihrem Ehemann kommt Bea Smith (Danielle Cormack) ins berüchtigte Frauengefängnis Wentworth. In der beklemmenden Haftanstalt herrschen harsche Zustände, denn die Direktorin Meg Jackson (Catherine McClements) macht sich durchaus gerne die Insassen und deren Machtkämpfe zunutze, um die Kontrolle zu behalten. So muss sich Bea schnell akklimatisieren, um nicht unter die Räder zu kommen. Besonders schwer fällt ihr allerdings, dass sie durch die Gefängnismauern von ihrer Tochter getrennt ist.

Wo viel Schatten ist, findet sich aber auch mancher Lichtblick: Denn manchmal halten die Frauen hinter Gittern auch zusammen und spenden einander Trost und Hilfe …

Wentworth.S06E09.GERMAN.720p.HDTV.x264-ACED.mkv (884.2 MB)



General
Unique ID : 245687147362643137162518244039454667727 (0xB8D59F9783BD20C3C8FBFF6D8A90B3CF)
Complete name : ./Wentworth.S06E09.GERMAN.720p.HDTV.x264-ACED.mkv
Format : Matroska
Format version : Version 2
File size : 884 MiB
Duration : 46 min 25 s
Overall bit rate : 2 663 kb/s
Encoded date : UTC 2018-11-06 21:55:56
Writing application : mkvmerge v28.2.0 ('The Awakening') 64-bit
Writing library : libebml v1.3.6 + libmatroska v1.4.9

Video
ID : 1
Format : AVC
Format/Info : Advanced Video Codec
Format profile : High@L4.1
Format settings : CABAC / 5 Ref Frames
Format settings, CABAC : Yes
Format settings, RefFrames : 5 frames
Codec ID : V_MPEG4/ISO/AVC
Duration : 46 min 25 s
Bit rate : 2 277 kb/s
Width : 1 280 pixels
Height : 720 pixels
Display aspect ratio : 16:9
Frame rate mode : Constant
Frame rate : 25.000 FPS
Color space : YUV
Chroma subsampling : 4:2:0
Bit depth : 8 bits
Scan type : Progressive
Bits/(Pixel*Frame) : 0.099
Stream size : 756 MiB (86%)
Writing library : x264 core 157 r2935 545de2f
Encoding settings : cabac=1 / ref=5 / deblock=1:-3:-3 / analyse=0x3:0x113 / me=umh / subme=9 / psy=1 / psy_rd=1.00:0.00 / mixed_ref=1 / me_range=16 / chroma_me=1 / trellis=2 / 8x8dct=1 / cqm=0 / deadzone=21,11 / fast_pskip=0 / chroma_qp_offset=-2 / threads=9 / lookahead_threads=1 / sliced_threads=0 / nr=0 / decimate=1 / interlaced=0 / bluray_compat=0 / constrained_intra=0 / bframes=3 / b_pyramid=2 / b_adapt=2 / b_bias=0 / direct=3 / weightb=1 / open_gop=0 / weightp=2 / keyint=250 / keyint_min=25 / scenecut=40 / intra_refresh=0 / rc_lookahead=50 / rc=crf / mbtree=1 / crf=18.0 / qcomp=0.60 / qpmin=0 / qpmax=69 / qpstep=4 / ip_ratio=1.40 / aq=1:1.00
Default : Yes
Forced : No

Audio
ID : 2
Format : AC-3
Format/Info : Audio Coding 3
Format settings, Endianness : Big
Codec ID : A_AC3
Duration : 46 min 25 s
Bit rate mode : Constant
Bit rate : 384 kb/s
Channel(s) : 2 channels
Channel positions : Front: L R
Sampling rate : 48.0 kHz
Frame rate : 31.250 FPS (1536 SPF)
Bit depth : 16 bits
Compression mode : Lossy
Stream size : 128 MiB (14%)
Language : German
Service kind : Complete Main
Default : Yes
Forced : No





Wentworth S06E09


Wentworth S06E09


Wentworth S06E09


Wentworth S06E09


Wentworth S06E09

All episodes