Featured TV Shows


Wentworth S06E09

Posted By: Tavaz
SD / BDRip IMDb
Wentworth S06E09

Wentworth S06E09
BluRay Remux | MKV | 1920x1080 | English | H264 @ 23886 kbps | DTS | 46 min 27 s | 8.39 GiB
Subtitles: English
Genre: Crime, Drama

Bea Smith is locked up while awaiting trial for the attempted murder of her husband and must learn how life works in prison. A modern adaptation and sequel of the iconic Prisoner series.

Wentworth.S06E09.Shallow.Grave.1080i.BluRay.REMUX.AVC.DTS-HD.MA.5.1-EPSiLON=fff4a649669d74e403738fbfd298f8fe5f306290.part1.rar (4.4 GB)
Wentworth.S06E09.Shallow.Grave.1080i.BluRay.REMUX.AVC.DTS-HD.MA.5.1-EPSiLON=fff4a649669d74e403738fbfd298f8fe5f306290.part2.rar (4.1 GB)



General
Unique ID : 321085595308043150491699978696373490650 (0xF18ED615E3DCAE948A426972D53AD3DA)
Complete name : ./Wentworth.S06E09.Shallow.Grave.1080i.BluRay.REMUX.AVC.DTS-HD.MA.5.1-EPSiLON.mkv
Format : Matroska
Format version : Version 4 / Version 2
File size : 8.39 GiB
Duration : 46 min 27 s
Overall bit rate mode : Variable
Overall bit rate : 25.9 Mb/s
Movie name : Wentworth - S06E09 - Shallow Grave
Encoded date : UTC 2018-10-01 15:56:35
Writing application : mkvmerge v27.0.0 ('Metropolis') 64-bit
Writing library : libebml v1.3.6 + libmatroska v1.4.9

Video
ID : 1
Format : AVC
Format/Info : Advanced Video Codec
Format profile : High@L4.1
Format settings : CABAC / 4 Ref Frames
Format settings, CABAC : Yes
Format settings, RefFrames : 4 frames
Codec ID : V_MPEG4/ISO/AVC
Duration : 46 min 27 s
Bit rate mode : Variable
Bit rate : 23.9 Mb/s
Maximum bit rate : 25.0 Mb/s
Width : 1 920 pixels
Height : 1 080 pixels
Display aspect ratio : 16:9
Frame rate mode : Constant
Frame rate : 25.000 FPS
Color space : YUV
Chroma subsampling : 4:2:0
Bit depth : 8 bits
Scan type : MBAFF
Scan type, store method : Interleaved fields
Scan order : Top Field First
Bits/(Pixel*Frame) : 0.461
Stream size : 7.75 GiB (92%)
Title : MPEG-4 AVC Video / 24613 kbps / 1080i / 25 fps / 16:9 / High Profile 4.1
Language : English
Default : Yes
Forced : No

Audio
ID : 2
Format : DTS
Format/Info : Digital Theater Systems
Format profile : MA / Core
Mode : 16
Format settings, Endianness : Big
Codec ID : A_DTS
Duration : 46 min 27 s
Bit rate mode : Variable / Constant
Bit rate : 1 920 kb/s / 1 509 kb/s
Channel(s) : 6 channels
Channel positions : Front: L C R, Side: L R, LFE
Sampling rate : 48.0 kHz
Frame rate : 93.750 FPS (512 SPF)
Bit depth : 16 bits
Compression mode : Lossless / Lossy
Stream size : 639 MiB (7%)
Title : DTS-HD Master Audio / 5.1 / 48 kHz / 1922 kbps / 16-bit
Language : English
Default : Yes
Forced : No

Text
ID : 3
Format : PGS
Codec ID : S_HDMV/PGS
Codec ID/Info : Picture based subtitle format used on BDs/HD-DVDs
Duration : 45 min 25 s
Bit rate : 40.4 kb/s
Count of elements : 1390
Stream size : 13.1 MiB (0%)
Title : SDH
Language : English
Default : No
Forced : No

Menu
00:00:00.000 : en:Chapter 1
00:07:34.560 : en:Chapter 2
00:15:46.080 : en:Chapter 3
00:22:28.720 : en:Chapter 4
00:30:08.840 : en:Chapter 5
00:37:35.120 : en:Chapter 6





Wentworth S06E09


Wentworth S06E09


Wentworth S06E09


Wentworth S06E09


Wentworth S06E09

All episodes