Featured TV Shows


Wentworth S06E09

Posted By: Tavaz
1080p (FullHD) / WEBRip IMDb
Wentworth S06E09

Wentworth S06E09
WEBRip | MKV | 1920x1080 | English | H264 @ 7627 kbps | AAC @ 384 kbps | 46 min 26 s | 2.60 GiB
Genre: Drama

Bea Smith is locked up while awaiting trial for the attempted murder of her husband and must learn how life works in prison. A modern adaptation and sequel of the iconic Prisoner series.

c9fcc563663d4e8c8feef95d5f97a807.mkv (2.6 GB)



General
Complete name : ./c9fcc563663d4e8c8feef95d5f97a807.mkv
Format : Matroska
Format version : Version 4 / Version 2
File size : 2.60 GiB
Duration : 46 min 26 s
Overall bit rate mode : Variable
Overall bit rate : 8 009 kb/s
Encoded date : UTC 2018-08-15 06:22:29
Writing application : mkvmerge v25.0.0 ('Prog Noir') 64-bit
Writing library : libebml v1.3.6 + libmatroska v1.4.9

Video
ID : 1
Format : AVC
Format/Info : Advanced Video Codec
Format profile : High@L4.1
Format settings : CABAC / 2 Ref Frames
Format settings, CABAC : Yes
Format settings, RefFrames : 2 frames
Format settings, GOP : M=3, N=25
Codec ID : V_MPEG4/ISO/AVC
Duration : 46 min 25 s
Bit rate mode : Variable
Bit rate : 7 628 kb/s
Maximum bit rate : 11.7 Mb/s
Width : 1 920 pixels
Height : 1 080 pixels
Display aspect ratio : 16:9
Frame rate mode : Constant
Frame rate : 25.000 FPS
Color space : YUV
Chroma subsampling : 4:2:0
Bit depth : 8 bits
Scan type : Progressive
Bits/(Pixel*Frame) : 0.147
Stream size : 2.47 GiB (95%)
Language : English
Default : Yes
Forced : No

Audio
ID : 2
Format : AAC
Format/Info : Advanced Audio Codec
Format profile : LC
Codec ID : A_AAC-2
Duration : 46 min 26 s
Bit rate : 384 kb/s
Channel(s) : 2 channels
Channel positions : Front: L R
Sampling rate : 48.0 kHz
Frame rate : 46.875 FPS (1024 SPF)
Compression mode : Lossy
Stream size : 127 MiB (5%)
Language : English
Default : Yes
Forced : No





Wentworth S06E09


Wentworth S06E09


Wentworth S06E09


Wentworth S06E09


Wentworth S06E09

All episodes