Featured TV Shows


Wentworth S06E12

Posted By: Tavaz
SD / BDRip IMDb
Wentworth S06E12

Wentworth S06E12
BluRay Remux | MKV | 1920x1080 | English | H264 @ 24001 kbps | DTS | 45 min 37 s | 8.26 GiB
Subtitles: English
Genre: Crime, Drama

Bea Smith is locked up while awaiting trial for the attempted murder of her husband and must learn how life works in prison. A modern adaptation and sequel of the iconic Prisoner series.

Wentworth.S06E12.Showdown.1080i.BluRay.REMUX.AVC.DTS-HD.MA.5.1-EPSiLON=527c31d83062f7258001d45f96ff304877152ee6.part1.rar (4.3 GB)
Wentworth.S06E12.Showdown.1080i.BluRay.REMUX.AVC.DTS-HD.MA.5.1-EPSiLON=527c31d83062f7258001d45f96ff304877152ee6.part2.rar (4.0 GB)



General
Unique ID : 141700344308101961203968150947079811380 (0x6A9A7E5E18A6B571D6A2255C41927134)
Complete name : ./Wentworth.S06E12.Showdown.1080i.BluRay.REMUX.AVC.DTS-HD.MA.5.1-EPSiLON.mkv
Format : Matroska
Format version : Version 4 / Version 2
File size : 8.26 GiB
Duration : 45 min 37 s
Overall bit rate mode : Variable
Overall bit rate : 25.9 Mb/s
Movie name : Wentworth - S06E12 - Showdown
Encoded date : UTC 2018-10-01 16:04:52
Writing application : mkvmerge v27.0.0 ('Metropolis') 64-bit
Writing library : libebml v1.3.6 + libmatroska v1.4.9

Video
ID : 1
Format : AVC
Format/Info : Advanced Video Codec
Format profile : High@L4.1
Format settings : CABAC / 4 Ref Frames
Format settings, CABAC : Yes
Format settings, RefFrames : 4 frames
Codec ID : V_MPEG4/ISO/AVC
Duration : 45 min 37 s
Bit rate mode : Variable
Bit rate : 24.0 Mb/s
Maximum bit rate : 25.0 Mb/s
Width : 1 920 pixels
Height : 1 080 pixels
Display aspect ratio : 16:9
Frame rate mode : Constant
Frame rate : 25.000 FPS
Color space : YUV
Chroma subsampling : 4:2:0
Bit depth : 8 bits
Scan type : MBAFF
Scan type, store method : Interleaved fields
Scan order : Top Field First
Bits/(Pixel*Frame) : 0.463
Stream size : 7.65 GiB (93%)
Title : MPEG-4 AVC Video / 24653 kbps / 1080i / 25 fps / 16:9 / High Profile 4.1
Language : English
Default : Yes
Forced : No

Audio
ID : 2
Format : DTS
Format/Info : Digital Theater Systems
Format profile : MA / Core
Mode : 16
Format settings, Endianness : Big
Codec ID : A_DTS
Duration : 45 min 37 s
Bit rate mode : Variable / Constant
Bit rate : 1 866 kb/s / 1 509 kb/s
Channel(s) : 6 channels
Channel positions : Front: L C R, Side: L R, LFE
Sampling rate : 48.0 kHz
Frame rate : 93.750 FPS (512 SPF)
Bit depth : 16 bits
Compression mode : Lossless / Lossy
Stream size : 609 MiB (7%)
Title : DTS-HD Master Audio / 5.1 / 48 kHz / 1866 kbps / 16-bit
Language : English
Default : Yes
Forced : No

Text
ID : 3
Format : PGS
Codec ID : S_HDMV/PGS
Codec ID/Info : Picture based subtitle format used on BDs/HD-DVDs
Duration : 44 min 28 s
Bit rate : 39.5 kb/s
Count of elements : 1428
Stream size : 12.6 MiB (0%)
Title : SDH
Language : English
Default : No
Forced : No

Menu
00:00:00.000 : en:Chapter 1
00:06:53.800 : en:Chapter 2
00:14:24.400 : en:Chapter 3
00:21:50.360 : en:Chapter 4
00:28:42.720 : en:Chapter 5
00:35:58.640 : en:Chapter 6





Wentworth S06E12


Wentworth S06E12


Wentworth S06E12


Wentworth S06E12


Wentworth S06E12

All episodes