Featured TV Shows


Wentworth S07E03

Posted By: Tavaz
1080p (FullHD) / WEBRip IMDb
Wentworth S07E03

Wentworth S07E03
WEBRip | MKV | 1920x1080 | English | H264 @ 9347 kbps | AAC @ 384 kbps | 45 min 8 s | 3.07 GiB
Genre: Crime, Drama


Bea Smith is locked up while awaiting trial for the attempted murder of her husband and must learn how life works in prison. A modern adaptation and sequel of the iconic Prisoner series.

Wentworth.S07E03.Atonement.1080p.FXNOW.WEBRip.AAC2.0.H264-WWSJ.mkv (3.1 GB)



General
Unique ID : 331854278988974860846161879196728549527 (0xF9A8CF2ECB9B9123D0A3FB480D7FE097)
Complete name : ./Wentworth.S07E03.Atonement.1080p.FXNOW.WEBRip.AAC2.0.H264-WWSJ.mkv
Format : Matroska
Format version : Version 4 / Version 2
File size : 3.07 GiB
Duration : 45 min 8 s
Overall bit rate : 9 734 kb/s
Encoded date : UTC 2019-06-11 11:51:17
Writing application : mkvmerge v34.0.0 ('Sight and Seen') 64-bit
Writing library : libebml v1.3.7 + libmatroska v1.5.0

Video
ID : 1
Format : AVC
Format/Info : Advanced Video Codec
Format profile : Baseline@L4
Format settings : 1 Ref Frames
Format settings, CABAC : No
Format settings, RefFrames : 1 frame
Format settings, GOP : M=1, N=50
Codec ID : V_MPEG4/ISO/AVC
Duration : 45 min 8 s
Bit rate : 9 348 kb/s
Width : 1 920 pixels
Height : 1 080 pixels
Display aspect ratio : 16:9
Frame rate mode : Constant
Frame rate : 25.000 FPS
Color space : YUV
Chroma subsampling : 4:2:0
Bit depth : 8 bits
Scan type : Progressive
Bits/(Pixel*Frame) : 0.180
Stream size : 2.95 GiB (96%)
Language : English
Default : Yes
Forced : No

Audio
ID : 2
Format : AAC
Format/Info : Advanced Audio Codec
Format profile : LC
Codec ID : A_AAC-2
Duration : 45 min 8 s
Bit rate : 384 kb/s
Channel(s) : 2 channels
Channel positions : Front: L R
Sampling rate : 48.0 kHz
Frame rate : 46.875 FPS (1024 SPF)
Compression mode : Lossy
Delay relative to video : 8 ms
Stream size : 124 MiB (4%)
Language : English
Default : Yes
Forced : No





Wentworth S07E03


Wentworth S07E03


Wentworth S07E03


Wentworth S07E03


Wentworth S07E03

All episodes