Featured TV Shows


Wentworth S07E04

Posted By: Tavaz
1080p (FullHD) / WEBRip IMDb
Wentworth S07E04

Wentworth S07E04
WEBRip | MKV | 1920x1080 | English | H264 @ 9425 kbps | AAC @ 128 kbps | 47 min 33 s | 3.17 GiB
Genre: Crime, Drama


Bea Smith is locked up while awaiting trial for the attempted murder of her husband and must learn how life works in prison. A modern adaptation and sequel of the iconic Prisoner series.

1cc419b69b414c84b907f37d49c36204.mkv (3.2 GB)



General
Unique ID : 290436341628009037845515114541443003486 (0xDA800135DA1CED4E40812A7DF88D345E)
Complete name : ./1cc419b69b414c84b907f37d49c36204.mkv
Format : Matroska
Format version : Version 4 / Version 2
File size : 3.17 GiB
Duration : 47 min 33 s
Overall bit rate : 9 556 kb/s
Encoded date : UTC 2019-06-18 11:57:45
Writing application : mkvmerge v34.0.0 ('Sight and Seen') 64-bit
Writing library : libebml v1.3.7 + libmatroska v1.5.0

Video
ID : 1
Format : AVC
Format/Info : Advanced Video Codec
Format profile : Baseline@L4
Format settings : 1 Ref Frames
Format settings, CABAC : No
Format settings, RefFrames : 1 frame
Format settings, GOP : M=1, N=50
Codec ID : V_MPEG4/ISO/AVC
Duration : 47 min 33 s
Bit rate : 9 425 kb/s
Width : 1 920 pixels
Height : 1 080 pixels
Display aspect ratio : 16:9
Frame rate mode : Constant
Frame rate : 25.000 FPS
Color space : YUV
Chroma subsampling : 4:2:0
Bit depth : 8 bits
Scan type : Progressive
Bits/(Pixel*Frame) : 0.182
Stream size : 3.13 GiB (99%)
Language : English
Default : Yes
Forced : No

Audio
ID : 2
Format : AAC
Format/Info : Advanced Audio Codec
Format profile : LC
Codec ID : A_AAC-2
Duration : 47 min 33 s
Bit rate : 128 kb/s
Channel(s) : 2 channels
Channel positions : Front: L R
Sampling rate : 48.0 kHz
Frame rate : 46.875 FPS (1024 SPF)
Compression mode : Lossy
Delay relative to video : 19 ms
Stream size : 43.5 MiB (1%)
Language : English
Default : Yes
Forced : No





Wentworth S07E04


Wentworth S07E04


Wentworth S07E04


Wentworth S07E04


Wentworth S07E04

All episodes