Featured TV Shows


Wentworth S07E06

Posted By: Tavaz
1080p (FullHD) / WEBRip IMDb
Wentworth S07E06

Wentworth S07E06
WEBRip | MKV | 1920x1080 | English | H264 @ 9245 kbps | AAC @ 128 kbps | 48 min 24 s | 3.17 GiB
Genre: Crime, Drama


Bea Smith is locked up while awaiting trial for the attempted murder of her husband and must learn how life works in prison. A modern adaptation and sequel of the iconic Prisoner series.

Wentworth.S07E06.Mother.1080p.FXNOW.WEBRip.AAC2.0.H264-WWSJ.mkv (3.2 GB)



General
Unique ID : 86367312075689260438185721118563190717 (0x40F9BD3FC4BF258482A6EA505BD747BD)
Complete name : ./Wentworth.S07E06.Mother.1080p.FXNOW.WEBRip.AAC2.0.H264-WWSJ.mkv
Format : Matroska
Format version : Version 4 / Version 2
File size : 3.17 GiB
Duration : 48 min 24 s
Overall bit rate : 9 386 kb/s
Encoded date : UTC 2019-07-02 11:59:56
Writing application : mkvmerge v34.0.0 ('Sight and Seen') 64-bit
Writing library : libebml v1.3.7 + libmatroska v1.5.0
IsTruncated : Yes

Video
ID : 1
Format : AVC
Format/Info : Advanced Video Codec
Format profile : Baseline@L4
Format settings : 1 Ref Frames
Format settings, CABAC : No
Format settings, RefFrames : 1 frame
Format settings, GOP : M=1, N=50
Codec ID : V_MPEG4/ISO/AVC
Duration : 48 min 24 s
Bit rate : 9 245 kb/s
Width : 1 920 pixels
Height : 1 080 pixels
Display aspect ratio : 16:9
Frame rate mode : Constant
Frame rate : 25.000 FPS
Color space : YUV
Chroma subsampling : 4:2:0
Bit depth : 8 bits
Scan type : Progressive
Bits/(Pixel*Frame) : 0.178
Stream size : 3.13 GiB (98%)
Language : English
Default : Yes
Forced : No

Audio
ID : 2
Format : AAC
Format/Info : Advanced Audio Codec
Format profile : LC
Codec ID : A_AAC-2
Duration : 48 min 24 s
Bit rate : 128 kb/s
Channel(s) : 2 channels
Channel positions : Front: L R
Sampling rate : 48.0 kHz
Frame rate : 46.875 FPS (1024 SPF)
Compression mode : Lossy
Stream size : 44.3 MiB (1%)
Language : English
Default : Yes
Forced : No





Wentworth S07E06


Wentworth S07E06


Wentworth S07E06


Wentworth S07E06


Wentworth S07E06

All episodes