What We Do in the Shadows S01E08

Posted By: Tavaz
720p (HD) / WEBRip IMDb
What We Do in the Shadows S01E08

What We Do in the Shadows S01E08
WEBRip | MKV | 1280x720 | English | H264 @ 3181 kbps | AAC @ 126 kbps | 23 min 38 s | 560 MiB
Subtitles: English
Genre: Komedi


A documentary-style look into the daily (or rather, nightly) lives of three vampires in Staten Island who have “lived” together for hundreds and hundreds of years.

130652a691704469aab7368287f42d67.mkv (559.7 MB)



General
Unique ID : 283932544647851286986907769247932193810 (0xD59B6B4314ED81CD7CD20B1041ED9C12)
Complete name : ./130652a691704469aab7368287f42d67.mkv
Format : Matroska
Format version : Version 4 / Version 2
File size : 560 MiB
Duration : 23 min 38 s
Overall bit rate : 3 311 kb/s
Encoded date : UTC 2019-05-16 02:19:01
Writing application : mkvmerge v22.0.0 ('At The End Of The World') 64-bit
Writing library : libebml v1.3.5 + libmatroska v1.4.8

Video
ID : 1
Format : AVC
Format/Info : Advanced Video Codec
Format profile : High@L3.1
Format settings : CABAC / 4 Ref Frames
Format settings, CABAC : Yes
Format settings, RefFrames : 4 frames
Codec ID : V_MPEG4/ISO/AVC
Duration : 23 min 38 s
Bit rate : 3 182 kb/s
Width : 1 280 pixels
Height : 720 pixels
Display aspect ratio : 16:9
Frame rate mode : Constant
Frame rate : 23.976 (24000/1001) FPS
Color space : YUV
Chroma subsampling : 4:2:0
Bit depth : 8 bits
Scan type : Progressive
Bits/(Pixel*Frame) : 0.144
Stream size : 538 MiB (96%)
Writing library : x264 core 157 r2969 d4099dd
Encoding settings : cabac=1 / ref=3 / deblock=1:0:0 / analyse=0x3:0x113 / me=hex / subme=7 / psy=1 / psy_rd=1.00:0.00 / mixed_ref=1 / me_range=16 / chroma_me=1 / trellis=1 / 8x8dct=1 / cqm=0 / deadzone=21,11 / fast_pskip=1 / chroma_qp_offset=-2 / threads=12 / lookahead_threads=2 / sliced_threads=0 / nr=0 / decimate=1 / interlaced=0 / bluray_compat=0 / constrained_intra=0 / bframes=3 / b_pyramid=2 / b_adapt=1 / b_bias=0 / direct=1 / weightb=1 / open_gop=0 / weightp=2 / keyint=250 / keyint_min=23 / scenecut=40 / intra_refresh=0 / rc_lookahead=40 / rc=crf / mbtree=1 / crf=19.0 / qcomp=0.60 / qpmin=0 / qpmax=69 / qpstep=4 / ip_ratio=1.40 / aq=1:1.00
Default : Yes
Forced : No

Audio
ID : 2
Format : AAC
Format/Info : Advanced Audio Codec
Format profile : HE-AAC / LC
Format settings : Implicit
Codec ID : A_AAC-2
Duration : 23 min 37 s
Bit rate : 127 kb/s
Channel(s) : 2 channels
Channel positions : Front: L R
Sampling rate : 48.0 kHz / 24.0 kHz
Frame rate : 23.438 FPS (1024 SPF)
Compression mode : Lossy
Stream size : 21.4 MiB (4%)
Language : English
Default : Yes
Forced : No

Text
ID : 3
Format : UTF-8
Codec ID : S_TEXT/UTF8
Codec ID/Info : UTF-8 Plain Text
Duration : 23 min 8 s
Bit rate : 138 b/s
Count of elements : 563
Stream size : 23.5 KiB (0%)
Language : English
Default : Yes
Forced : No





What We Do in the Shadows S01E08


What We Do in the Shadows S01E08


What We Do in the Shadows S01E08


What We Do in the Shadows S01E08


What We Do in the Shadows S01E08

All episodes