Featured TV Shows


White Famous S01E06

Posted By: Tavaz
720p (HD) / HDTV IMDb
White Famous S01E06

White Famous S01E06
HDTV | MKV | 1280x720 | English | H264 @ 2494 kbps | AC-3 @ 384 kbps | 29 min 25 s | 606 MiB
Subtitles: English
Genre: Comedy

Floyd Mooney is a young African-American comedian whose star is on the rise. But the path to stardom is a minefield that Floyd must navigate to maintain his credibility while attempting to become “white famous.”

white.famous.s01e06.720p.hdtv.x264-w4f.mkv (606.0 MB)
white.famous.s01e06.720p.hdtv.x264-w4f-sample.mkv (20.4 MB)



General
Unique ID : 230700708230832633508168885727328333525 (0xAD8F57187B4D7389A3664A04ED19EED5)
Complete name : ./white.famous.s01e06.720p.hdtv.x264-w4f.mkv
Format : Matroska
Format version : Version 4 / Version 2
File size : 606 MiB
Duration : 29 min 25 s
Overall bit rate : 2 880 kb/s
Encoded date : UTC 2017-11-19 01:44:22
Writing application : mkvmerge v16.0.0 ('Protest') 64-bit
Writing library : libebml v1.3.5 + libmatroska v1.4.8

Video
ID : 1
Format : AVC
Format/Info : Advanced Video Codec
Format profile : High@L4.1
Format settings : CABAC / 5 Ref Frames
Format settings, CABAC : Yes
Format settings, RefFrames : 5 frames
Codec ID : V_MPEG4/ISO/AVC
Duration : 29 min 25 s
Bit rate : 2 494 kb/s
Width : 1 280 pixels
Height : 720 pixels
Display aspect ratio : 16:9
Frame rate mode : Constant
Frame rate : 23.976 (24000/1001) FPS
Color space : YUV
Chroma subsampling : 4:2:0
Bit depth : 8 bits
Scan type : Progressive
Bits/(Pixel*Frame) : 0.113
Stream size : 525 MiB (87%)
Writing library : x264 core 152 r2851 ba24899
Encoding settings : cabac=1 / ref=5 / deblock=1:0:0 / analyse=0x3:0x113 / me=hex / subme=8 / psy=1 / psy_rd=1.00:0.00 / mixed_ref=1 / me_range=16 / chroma_me=1 / trellis=2 / 8x8dct=1 / cqm=0 / deadzone=21,11 / fast_pskip=1 / chroma_qp_offset=-2 / threads=18 / lookahead_threads=3 / sliced_threads=0 / nr=0 / decimate=1 / interlaced=0 / bluray_compat=0 / constrained_intra=0 / bframes=3 / b_pyramid=2 / b_adapt=1 / b_bias=0 / direct=3 / weightb=1 / open_gop=0 / weightp=2 / keyint=250 / keyint_min=23 / scenecut=40 / intra_refresh=0 / rc_lookahead=50 / rc=crf / mbtree=1 / crf=18.0 / qcomp=0.60 / qpmin=0 / qpmax=69 / qpstep=4 / ip_ratio=1.40 / aq=1:1.00
Default : Yes
Forced : No

Audio
ID : 2
Format : AC-3
Format/Info : Audio Coding 3
Format settings, Endianness : Big
Codec ID : A_AC3
Duration : 29 min 25 s
Bit rate mode : Constant
Bit rate : 384 kb/s
Channel(s) : 6 channels
Channel positions : Front: L C R, Side: L R, LFE
Sampling rate : 48.0 kHz
Frame rate : 31.250 FPS (1536 SPF)
Bit depth : 16 bits
Compression mode : Lossy
Stream size : 80.8 MiB (13%)
Language : English
Service kind : Complete Main
Default : Yes
Forced : No

Text
ID : 3
Format : UTF-8
Codec ID : S_TEXT/UTF8
Codec ID/Info : UTF-8 Plain Text
Duration : 29 min 12 s
Bit rate : 161 b/s
Count of elements : 822
Stream size : 34.5 KiB (0%)
Language : English
Default : No
Forced : No





White Famous S01E06


White Famous S01E06


White Famous S01E06


White Famous S01E06


White Famous S01E06

All episodes