Index
# A B C D E F G H I J K L M N O P Q R S T U V W Y Z
Tags
Language
Tags

Featured TV Shows


Who Killed Sara? S03E02

Posted By: Tavaz
1080p (FullHD) / WEBRip IMDb
Who Killed Sara? S03E02

Who Killed Sara? S03E02
WEBRip | MKV | 1920x1080 | English / Español / Français / Italiano / Deutsch | H265 @ 1594 kbps | E-AC-3 @ 640 kbps | 37 min 30 s | 1.28 GiB
Subtitles: Français
Genre: Drama, Crime, Mystery


Hell-bent on exacting revenge and proving he was framed for his sister's murder, Álex sets out to unearth much more than the crime's real culprit.

bd87b2966a2a48fd9ecdc5bf2681b0ab.mkv (1.3 GB)



General
Unique ID : 316475944709567619389893667573846932577 (0xEE170CC3969642F2D4485C7335427C61)
Complete name : ./bd87b2966a2a48fd9ecdc5bf2681b0ab.mkv
Format : Matroska
Format version : Version 4 / Version 2
File size : 1.28 GiB
Duration : 37 min 30 s
Overall bit rate : 4 892 kb/s
Movie name : Medusa Complex
Description : Sara tells Nicandro's dad about his son's drug business. Reinaldo offers Marifer a deal. Álex secures protection for Chema. Nicandro visits Daniela.
Writing application : Lavf58.29.100
Writing library : Lavf58.29.100
ErrorDetectionType : Per level 1
Attachments : 81476659.jpg
DATE : 2022
EPISODE_ID : 2
SEASON_NUMBER : 3
SHOW : Who Killed Sara?

Video
ID : 1
Format : HEVC
Format/Info : High Efficiency Video Coding
Format profile : Main@L4@Main
Codec ID : V_MPEGH/ISO/HEVC
Duration : 37 min 29 s
Bit rate : 1 594 kb/s
Width : 1 920 pixels
Height : 1 080 pixels
Display aspect ratio : 16:9
Frame rate mode : Constant
Frame rate : 23.976 (24000/1001) FPS
Color space : YUV
Chroma subsampling : 4:2:0
Bit depth : 8 bits
Bits/(Pixel*Frame) : 0.032
Stream size : 428 MiB (33%)
Default : No
Forced : No
Color range : Full

Audio #1
ID : 2
Format : E-AC-3
Format/Info : Enhanced Audio Coding 3
Format settings, Endianness : Big
Codec ID : A_EAC3
Duration : 37 min 30 s
Bit rate mode : Constant
Bit rate : 640 kb/s
Channel(s) : 6 channels
Channel positions : Front: L C R, Side: L R, LFE
Sampling rate : 48.0 kHz
Frame rate : 187.500 FPS (256 SPF)
Bit depth : 32 bits
Compression mode : Lossy
Delay relative to video : -83 ms
Stream size : 172 MiB (13%)
Title : German
Language : German
Service kind : Complete Main
Default : No
Forced : No

Audio #2
ID : 3
Format : E-AC-3
Format/Info : Enhanced Audio Coding 3
Format settings, Endianness : Big
Codec ID : A_EAC3
Duration : 37 min 30 s
Bit rate mode : Constant
Bit rate : 640 kb/s
Channel(s) : 6 channels
Channel positions : Front: L C R, Side: L R, LFE
Sampling rate : 48.0 kHz
Frame rate : 187.500 FPS (256 SPF)
Bit depth : 32 bits
Compression mode : Lossy
Delay relative to video : -83 ms
Stream size : 172 MiB (13%)
Title : French
Language : French
Service kind : Complete Main
Default : No
Forced : No

Audio #3
ID : 4
Format : E-AC-3
Format/Info : Enhanced Audio Coding 3
Format settings, Endianness : Big
Codec ID : A_EAC3
Duration : 37 min 30 s
Bit rate mode : Constant
Bit rate : 640 kb/s
Channel(s) : 6 channels
Channel positions : Front: L C R, Side: L R, LFE
Sampling rate : 48.0 kHz
Frame rate : 187.500 FPS (256 SPF)
Bit depth : 32 bits
Compression mode : Lossy
Delay relative to video : -83 ms
Stream size : 172 MiB (13%)
Title : English
Language : English
Service kind : Complete Main
Default : Yes
Forced : No

Audio #4
ID : 5
Format : E-AC-3
Format/Info : Enhanced Audio Coding 3
Format settings, Endianness : Big
Codec ID : A_EAC3
Duration : 37 min 30 s
Bit rate mode : Constant
Bit rate : 640 kb/s
Channel(s) : 6 channels
Channel positions : Front: L C R, Side: L R, LFE
Sampling rate : 48.0 kHz
Frame rate : 187.500 FPS (256 SPF)
Bit depth : 32 bits
Compression mode : Lossy
Delay relative to video : -83 ms
Stream size : 172 MiB (13%)
Title : Italian
Language : Italian
Service kind : Complete Main
Default : No
Forced : No

Audio #5
ID : 6
Format : E-AC-3
Format/Info : Enhanced Audio Coding 3
Format settings, Endianness : Big
Codec ID : A_EAC3
Duration : 37 min 30 s
Bit rate mode : Constant
Bit rate : 640 kb/s
Channel(s) : 6 channels
Channel positions : Front: L C R, Side: L R, LFE
Sampling rate : 48.0 kHz
Frame rate : 187.500 FPS (256 SPF)
Bit depth : 32 bits
Compression mode : Lossy
Delay relative to video : -83 ms
Stream size : 172 MiB (13%)
Title : Spanish [Original]
Language : Spanish
Service kind : Complete Main
Default : No
Forced : No

Text #1
ID : 7
Format : ASS
Codec ID : S_TEXT/ASS
Codec ID/Info : Advanced Sub Station Alpha
Duration : 36 min 14 s
Compression mode : Lossless
Title : French (Forced Narrative)
Language : French
Default : No
Forced : No

Text #2
ID : 8
Format : ASS
Codec ID : S_TEXT/ASS
Codec ID/Info : Advanced Sub Station Alpha
Duration : 36 min 14 s
Compression mode : Lossless
Title : French
Language : French
Default : No
Forced : No





Who Killed Sara? S03E02


Who Killed Sara? S03E02


Who Killed Sara? S03E02


Who Killed Sara? S03E02


Who Killed Sara? S03E02

All episodes