Index
# A B C D E F G H I J K L M N O P Q R S T U V W Y Z
Tags
Language
Tags

Featured TV Shows


Why Women Kill S01E03

Posted By: Tavaz
Why Women Kill S01E03

Why Women Kill S01E03
MOV | 960x540 | English | H264 @ 1740 kbps | AAC @ 192 kbps | 47 min 15 s | 655 MiB
Genre: Comedy, Crime, Drama


Three women living in three different decades: a housewife in the '60s, a socialite in the '80s and a lawyer in 2018, deal with infidelity in their marriages.

Why Women Kill S01E03 - I Killed Everyone He Did, But Backwards and in High Heels.mp4 (655.4 MB)



General
Complete name : ./Why Women Kill S01E03 - I Killed Everyone He Did, But Backwards and in High Heels (German sub.)/Why Women Kill S01E03 - I Killed Everyone He Did, But Backwards and in High Heels.mp4
Format : MPEG-4
Format profile : Base Media
Codec ID : isom (isom/iso2/avc1/mp41)
File size : 655 MiB
Duration : 47 min 15 s
Overall bit rate : 1 939 kb/s
Encoded date : UTC 2019-08-29 09:03:30
Tagged date : UTC 2019-08-29 09:03:30
Writing application : Lavf57.71.100

Video
ID : 1
Format : AVC
Format/Info : Advanced Video Codec
Format profile : Main@L3.1
Format settings : CABAC / 1 Ref Frames
Format settings, CABAC : Yes
Format settings, RefFrames : 1 frame
Format settings, GOP : M=1, N=25
Codec ID : avc1
Codec ID/Info : Advanced Video Coding
Duration : 47 min 15 s
Duration_FirstFrame : 125 ms
Bit rate : 1 740 kb/s
Width : 960 pixels
Height : 540 pixels
Display aspect ratio : 16:9
Frame rate mode : Constant
Frame rate : 24.000 FPS
Color space : YUV
Chroma subsampling : 4:2:0
Bit depth : 8 bits
Scan type : Progressive
Bits/(Pixel*Frame) : 0.140
Stream size : 588 MiB (90%)
Language : English
Encoded date : UTC 2019-08-29 09:03:30
Tagged date : UTC 2019-08-29 09:03:30

Audio
ID : 2
Format : AAC
Format/Info : Advanced Audio Codec
Format profile : LC
Codec ID : mp4a-40-2
Duration : 47 min 15 s
Bit rate mode : Constant
Bit rate : 192 kb/s
Channel(s) : 2 channels
Channel positions : Front: L R
Sampling rate : 48.0 kHz
Frame rate : 46.875 FPS (1024 SPF)
Compression mode : Lossy
Stream size : 65.7 MiB (10%)
Title : English
Language : English
Default : Yes
Alternate group : 1
Encoded date : UTC 2019-08-29 09:03:30
Tagged date : UTC 2019-08-29 09:03:30





Why Women Kill S01E03


Why Women Kill S01E03


Why Women Kill S01E03


Why Women Kill S01E03


Why Women Kill S01E03

All episodes