Index
# A B C D E F G H I J K L M N O P Q R S T U V W Y Z
Tags
Language
Tags

Featured TV Shows


Why Women Kill S01E03

Posted By: Tavaz
1080p (FullHD) / WEB-DL IMDb
Why Women Kill S01E03

Why Women Kill S01E03
WEB-DL | MKV | 1920x1080 | English | H264 @ 7369 kbps | E-AC-3 @ 640 kbps | 47 min 15 s | 2.64 GiB
Subtitles: English
Genre: Comedy, Crime, Drama


Three women living in three different decades: a housewife in the '60s, a socialite in the '80s and a lawyer in 2018, deal with infidelity in their marriages.

cda65773267847dd8e59897ef185f1b8.mkv (2.6 GB)



General
Unique ID : 199639908545290925512396463819938696516 (0x96313F6F928C2C02CCF2B61DDBDD8D44)
Complete name : ./cda65773267847dd8e59897ef185f1b8.mkv
Format : Matroska
Format version : Version 4 / Version 2
File size : 2.64 GiB
Duration : 47 min 15 s
Overall bit rate : 8 012 kb/s
Encoded date : UTC 2019-08-29 13:07:46
Writing application : mkvmerge v35.0.0 ('All The Love In The World') 64-bit
Writing library : libebml v1.3.9 + libmatroska v1.5.2

Video
ID : 1
Format : AVC
Format/Info : Advanced Video Codec
Format profile : High@L4
Format settings : CABAC / 4 Ref Frames
Format settings, CABAC : Yes
Format settings, RefFrames : 4 frames
Codec ID : V_MPEG4/ISO/AVC
Duration : 47 min 15 s
Bit rate mode : Constant
Bit rate : 7 370 kb/s
Nominal bit rate : 10 000 kb/s
Width : 1 920 pixels
Height : 1 080 pixels
Display aspect ratio : 16:9
Frame rate mode : Constant
Frame rate : 24.000 FPS
Color space : YUV
Chroma subsampling : 4:2:0
Bit depth : 8 bits
Scan type : Progressive
Bits/(Pixel*Frame) : 0.148
Stream size : 2.43 GiB (92%)
Default : Yes
Forced : No
Color range : Limited
Color primaries : BT.709
Transfer characteristics : BT.709
Matrix coefficients : BT.709

Audio
ID : 2
Format : E-AC-3
Format/Info : Enhanced Audio Coding 3
Format settings, Endianness : Big
Codec ID : A_EAC3
Duration : 47 min 15 s
Bit rate mode : Constant
Bit rate : 640 kb/s
Channel(s) : 6 channels
Channel positions : Front: L C R, Side: L R, LFE
Sampling rate : 48.0 kHz
Frame rate : 187.500 FPS (256 SPF)
Compression mode : Lossy
Stream size : 216 MiB (8%)
Language : English
Service kind : Complete Main
Default : Yes
Forced : No

Text #1
ID : 3
Format : UTF-8
Codec ID : S_TEXT/UTF8
Codec ID/Info : UTF-8 Plain Text
Duration : 44 min 6 s
Bit rate : 76 b/s
Count of elements : 890
Stream size : 24.6 KiB (0%)
Language : English
Default : No
Forced : No

Text #2
ID : 4
Format : UTF-8
Codec ID : S_TEXT/UTF8
Codec ID/Info : UTF-8 Plain Text
Duration : 44 min 6 s
Bit rate : 79 b/s
Count of elements : 948
Stream size : 25.7 KiB (0%)
Title : SDH
Language : English
Default : No
Forced : No





Why Women Kill S01E03


Why Women Kill S01E03


Why Women Kill S01E03


Why Women Kill S01E03


Why Women Kill S01E03

All episodes