Index
# A B C D E F G H I J K L M N O P Q R S T U V W Y Z
Tags
Language
Tags

Featured TV Shows


Why Women Kill S01E04

Posted By: Tavaz
720p (HD) / WEBRip IMDb
Why Women Kill S01E04

Why Women Kill S01E04
WEBRip | MKV | 1280x720 | English | H264 @ 3580 kbps | E-AC-3 @ 640 kbps | 45 min 46 s | 1.35 GiB
Subtitles: English
Genre: Comedy, Crime, Drama


Three women living in three different decades: a housewife in the '60s, a socialite in the '80s and a lawyer in 2018, deal with infidelity in their marriages.

519e9232f6e04a4fa46916eddf53f22e.mkv (1.4 GB)



General
Unique ID : 187139541948437115192663518585384916304 (0x8CC9C3C76CE93B2C91CA7B9A119CD550)
Complete name : ./519e9232f6e04a4fa46916eddf53f22e.mkv
Format : Matroska
Format version : Version 4 / Version 2
File size : 1.35 GiB
Duration : 45 min 46 s
Overall bit rate : 4 223 kb/s
Encoded date : UTC 2019-09-05 07:28:40
Writing application : mkvmerge v36.0.0 ('Is That Jazz?') 64-bit
Writing library : libebml v1.3.9 + libmatroska v1.5.2

Video
ID : 1
Format : AVC
Format/Info : Advanced Video Codec
Format profile : High@L3.1
Format settings : CABAC / 4 Ref Frames
Format settings, CABAC : Yes
Format settings, RefFrames : 4 frames
Codec ID : V_MPEG4/ISO/AVC
Duration : 45 min 46 s
Bit rate mode : Constant
Bit rate : 3 581 kb/s
Nominal bit rate : 6 000 kb/s
Width : 1 280 pixels
Height : 720 pixels
Display aspect ratio : 16:9
Frame rate mode : Constant
Frame rate : 24.000 FPS
Color space : YUV
Chroma subsampling : 4:2:0
Bit depth : 8 bits
Scan type : Progressive
Bits/(Pixel*Frame) : 0.162
Stream size : 1.14 GiB (85%)
Language : English
Default : Yes
Forced : No
Color range : Limited
Color primaries : BT.709
Transfer characteristics : BT.709
Matrix coefficients : BT.709

Audio
ID : 2
Format : E-AC-3
Format/Info : Enhanced Audio Coding 3
Format settings, Endianness : Big
Codec ID : A_EAC3
Duration : 45 min 46 s
Bit rate mode : Constant
Bit rate : 640 kb/s
Channel(s) : 6 channels
Channel positions : Front: L C R, Side: L R, LFE
Sampling rate : 48.0 kHz
Frame rate : 187.500 FPS (256 SPF)
Compression mode : Lossy
Stream size : 210 MiB (15%)
Title : English
Language : English
Service kind : Complete Main
Default : Yes
Forced : No

Text
ID : 3
Format : UTF-8
Codec ID : S_TEXT/UTF8
Codec ID/Info : UTF-8 Plain Text
Duration : 42 min 36 s
Bit rate : 84 b/s
Count of elements : 918
Stream size : 26.4 KiB (0%)
Title : English (SDH)
Language : English
Default : No
Forced : No





Why Women Kill S01E04


Why Women Kill S01E04


Why Women Kill S01E04


Why Women Kill S01E04


Why Women Kill S01E04

All episodes