Index
# A B C D E F G H I J K L M N O P Q R S T U V W Y Z
Tags
Language
Tags

Featured TV Shows


Why Women Kill S01E07

Posted By: Tavaz
1080p (FullHD) / HDTV IMDb
Why Women Kill S01E07

Why Women Kill S01E07
HDTV | MKV | 1920x1080 | Français / English | H264 @ 9023 kbps | AAC @ 61 kbps | 45 min 35 s | 2.91 GiB
Subtitles: Français
Genre: Comedy, Crime, Drama


Three women living in three different decades: a housewife in the '60s, a socialite in the '80s and a lawyer in 2018, deal with infidelity in their marriages.

b5efcc73f973456ba819ed0487b1d644.mkv (2.9 GB)



General
Unique ID : 6529441440909169631472770274308985898 (0x4E986515EE05EDF04006D8680A9142A)
Complete name : ./b5efcc73f973456ba819ed0487b1d644.mkv
Format : Matroska
Format version : Version 4 / Version 2
File size : 2.91 GiB
Duration : 45 min 35 s
Overall bit rate : 9 150 kb/s
Encoded date : UTC 2020-04-30 20:06:41
Writing application : mkvmerge v45.0.0 ('Heaven in Pennies') 64-bit
Writing library : libebml v1.3.10 + libmatroska v1.5.2

Video
ID : 1
Format : AVC
Format/Info : Advanced Video Codec
Format profile : High@L4
Format settings : CABAC / 4 Ref Frames
Format settings, CABAC : Yes
Format settings, RefFrames : 4 frames
Codec ID : V_MPEG4/ISO/AVC
Duration : 45 min 35 s
Bit rate : 9 024 kb/s
Width : 1 920 pixels
Height : 1 080 pixels
Display aspect ratio : 16:9
Frame rate mode : Constant
Frame rate : 25.000 FPS
Standard : Component
Color space : YUV
Chroma subsampling : 4:2:0
Bit depth : 8 bits
Scan type : MBAFF
Scan type, store method : Interleaved fields
Scan order : Top Field First
Bits/(Pixel*Frame) : 0.174
Stream size : 2.87 GiB (99%)
Default : No
Forced : No
Color range : Limited
Color primaries : BT.709
Transfer characteristics : BT.709
Matrix coefficients : BT.709

Audio #1
ID : 2
Format : AAC
Format/Info : Advanced Audio Codec
Format profile : HE-AAC / LC
Format settings : Explicit
Codec ID : A_AAC-2
Duration : 45 min 35 s
Bit rate : 61.9 kb/s
Channel(s) : 2 channels
Channel positions : Front: L R
Sampling rate : 48.0 kHz / 24.0 kHz
Frame rate : 23.438 FPS (1024 SPF)
Compression mode : Lossy
Stream size : 20.2 MiB (1%)
Title : French
Language : French
Default : Yes
Forced : No

Audio #2
ID : 3
Format : AAC
Format/Info : Advanced Audio Codec
Format profile : HE-AAC / LC
Format settings : Explicit
Codec ID : A_AAC-2
Duration : 45 min 35 s
Bit rate : 61.9 kb/s
Channel(s) : 2 channels
Channel positions : Front: L R
Sampling rate : 48.0 kHz / 24.0 kHz
Frame rate : 23.438 FPS (1024 SPF)
Compression mode : Lossy
Stream size : 20.2 MiB (1%)
Title : English
Language : English
Default : No
Forced : No

Text #1
ID : 4
Format : UTF-8
Codec ID : S_TEXT/UTF8
Codec ID/Info : UTF-8 Plain Text
Duration : 44 min 21 s
Bit rate : 63 b/s
Count of elements : 730
Stream size : 20.5 KiB (0%)
Title : French
Language : French
Default : No
Forced : No

Text #2
ID : 5
Format : UTF-8
Codec ID : S_TEXT/UTF8
Codec ID/Info : UTF-8 Plain Text
Duration : 45 min 15 s
Bit rate : 78 b/s
Count of elements : 884
Stream size : 26.2 KiB (0%)
Title : French (SDH)
Language : French
Default : No
Forced : No





Why Women Kill S01E07


Why Women Kill S01E07


Why Women Kill S01E07


Why Women Kill S01E07


Why Women Kill S01E07

All episodes