Index
# A B C D E F G H I J K L M N O P Q R S T U V W Y Z
Tags
Language
Tags

Featured TV Shows


Why Women Kill S01E10

Posted By: Tavaz
720p (HD) / WEB-DL IMDb
Why Women Kill S01E10

Why Women Kill S01E10
WEB-DL | MKV | 1280x720 | English | H264 @ 3469 kbps | E-AC-3 @ 640 kbps | 56 min 7 s | 1.61 GiB
Subtitles: English
Genre: Comedy, Crime, Drama


Three women living in three different decades: a housewife in the '60s, a socialite in the '80s and a lawyer in 2018, deal with infidelity in their marriages.

23fffccf761d4f5996f4e1f4b07a42d2.mkv (1.6 GB)



General
Unique ID : 286897172141888349168584210703065111378 (0xD7D662AEBD3AA1AC753E5A4F9FED5B52)
Complete name : ./23fffccf761d4f5996f4e1f4b07a42d2.mkv
Format : Matroska
Format version : Version 4 / Version 2
File size : 1.61 GiB
Duration : 56 min 7 s
Overall bit rate : 4 112 kb/s
Encoded date : UTC 2019-10-17 13:09:47
Writing application : mkvmerge v37.0.0 ('Leave It') 64-bit
Writing library : libebml v1.3.9 + libmatroska v1.5.2

Video
ID : 1
Format : AVC
Format/Info : Advanced Video Codec
Format profile : High@L3.1
Format settings : CABAC / 4 Ref Frames
Format settings, CABAC : Yes
Format settings, RefFrames : 4 frames
Codec ID : V_MPEG4/ISO/AVC
Duration : 56 min 7 s
Bit rate mode : Constant
Bit rate : 3 469 kb/s
Nominal bit rate : 6 000 kb/s
Width : 1 280 pixels
Height : 720 pixels
Display aspect ratio : 16:9
Frame rate mode : Constant
Frame rate : 24.000 FPS
Color space : YUV
Chroma subsampling : 4:2:0
Bit depth : 8 bits
Scan type : Progressive
Bits/(Pixel*Frame) : 0.157
Stream size : 1.36 GiB (84%)
Default : Yes
Forced : No
Color range : Limited
Color primaries : BT.709
Transfer characteristics : BT.709
Matrix coefficients : BT.709

Audio
ID : 2
Format : E-AC-3
Format/Info : Enhanced Audio Coding 3
Format settings, Endianness : Big
Codec ID : A_EAC3
Duration : 56 min 7 s
Bit rate mode : Constant
Bit rate : 640 kb/s
Channel(s) : 6 channels
Channel positions : Front: L C R, Side: L R, LFE
Sampling rate : 48.0 kHz
Frame rate : 187.500 FPS (256 SPF)
Compression mode : Lossy
Stream size : 257 MiB (16%)
Language : English
Service kind : Complete Main
Default : Yes
Forced : No

Text #1
ID : 3
Format : UTF-8
Codec ID : S_TEXT/UTF8
Codec ID/Info : UTF-8 Plain Text
Duration : 53 min 42 s
Bit rate : 66 b/s
Count of elements : 907
Stream size : 26.0 KiB (0%)
Language : English
Default : No
Forced : No

Text #2
ID : 4
Format : UTF-8
Codec ID : S_TEXT/UTF8
Codec ID/Info : UTF-8 Plain Text
Duration : 53 min 42 s
Bit rate : 68 b/s
Count of elements : 963
Stream size : 26.8 KiB (0%)
Title : SDH
Language : English
Default : No
Forced : No





Why Women Kill S01E10


Why Women Kill S01E10


Why Women Kill S01E10


Why Women Kill S01E10


Why Women Kill S01E10

All episodes