Index
# A B C D E F G H I J K L M N O P Q R S T U V W Y Z
Tags
Language
Tags

Featured TV Shows


Why Women Kill S02E03

Posted By: Tavaz
1080p (FullHD) / WEBRip IMDb
Why Women Kill S02E03

Why Women Kill S02E03
WEBRip | MKV | 1920x816 | English | H264 @ 5318 kbps | E-AC-3 @ 640 kbps | 45 min 43 s | 1.90 GiB
Subtitles: English
Genre: Comedy, Crime, Drama


Three women living in three different decades: a housewife in the '60s, a socialite in the '80s and a lawyer in 2018, deal with infidelity in their marriages.

b817f9eeab25489bb9d60dd9eb9174af.mkv (1.9 GB)



General
Unique ID : 274708597117924242656224520954719257518 (0xCEAAF38982D377CB00AD399E2E2C43AE)
Complete name : ./b817f9eeab25489bb9d60dd9eb9174af.mkv
Format : Matroska
Format version : Version 4 / Version 2
File size : 1.90 GiB
Duration : 45 min 43 s
Overall bit rate : 5 961 kb/s
Encoded date : UTC 2021-06-07 06:47:41
Writing application : mkvmerge v57.0.0 ('Till The End') 64-bit
Writing library : libebml v1.4.2 + libmatroska v1.6.4

Video
ID : 1
Format : AVC
Format/Info : Advanced Video Codec
Format profile : High@L4
Format settings : CABAC / 4 Ref Frames
Format settings, CABAC : Yes
Format settings, RefFrames : 4 frames
Codec ID : V_MPEG4/ISO/AVC
Duration : 45 min 43 s
Bit rate mode : Constant
Bit rate : 5 318 kb/s
Nominal bit rate : 10 000 kb/s
Width : 1 920 pixels
Height : 816 pixels
Display aspect ratio : 2.35:1
Frame rate mode : Constant
Frame rate : 24.000 FPS
Color space : YUV
Chroma subsampling : 4:2:0
Bit depth : 8 bits
Scan type : Progressive
Bits/(Pixel*Frame) : 0.141
Stream size : 1.70 GiB (89%)
Language : English
Default : Yes
Forced : No
Color range : Limited
Color primaries : BT.709
Transfer characteristics : BT.709
Matrix coefficients : BT.709

Audio
ID : 2
Format : E-AC-3
Format/Info : Enhanced Audio Coding 3
Format settings, Endianness : Big
Codec ID : A_EAC3
Duration : 45 min 43 s
Bit rate mode : Constant
Bit rate : 640 kb/s
Channel(s) : 6 channels
Channel positions : Front: L C R, Side: L R, LFE
Sampling rate : 48.0 kHz
Frame rate : 187.500 FPS (256 SPF)
Compression mode : Lossy
Stream size : 209 MiB (11%)
Language : English
Service kind : Complete Main
Default : Yes
Forced : No

Text
ID : 3
Format : UTF-8
Codec ID : S_TEXT/UTF8
Codec ID/Info : UTF-8 Plain Text
Duration : 43 min 17 s
Bit rate : 79 b/s
Count of elements : 944
Stream size : 25.3 KiB (0%)
Title : English
Language : English
Default : No
Forced : No





Why Women Kill S02E03


Why Women Kill S02E03


Why Women Kill S02E03


Why Women Kill S02E03


Why Women Kill S02E03

All episodes