Index
# A B C D E F G H I J K L M N O P Q R S T U V W Y Z
Tags
Language
Tags

Featured TV Shows


Why Women Kill S02E04

Posted By: Tavaz
720p (HD) / WEBRip IMDb
Why Women Kill S02E04

Why Women Kill S02E04
WEBRip | MKV | 1280x544 | English | H264 @ 1967 kbps | E-AC-3 @ 640 kbps | 46 min 1 s | 876 MiB
Subtitles: English
Genre: Comedy, Crime, Drama


Three women living in three different decades: a housewife in the '60s, a socialite in the '80s and a lawyer in 2018, deal with infidelity in their marriages.

ac0ac45a3e4e4c02934675aac11c5d06.mkv (875.9 MB)



General
Unique ID : 22961696349915277345192226115350101096 (0x11464309168B89EF315CB4FF5DE2FC68)
Complete name : ./ac0ac45a3e4e4c02934675aac11c5d06.mkv
Format : Matroska
Format version : Version 4 / Version 2
File size : 876 MiB
Duration : 46 min 1 s
Overall bit rate : 2 660 kb/s
Writing application : mkvmerge v58.0.0 ('Supper's Ready') 64-bit
Writing library : libebml v1.4.2 + libmatroska v1.6.4

Video
ID : 1
Format : AVC
Format/Info : Advanced Video Codec
Format profile : High@L3.1
Format settings : CABAC / 4 Ref Frames
Format settings, CABAC : Yes
Format settings, RefFrames : 4 frames
Codec ID : V_MPEG4/ISO/AVC
Duration : 46 min 1 s
Bit rate mode : Constant
Bit rate : 1 968 kb/s
Nominal bit rate : 6 000 kb/s
Width : 1 280 pixels
Height : 544 pixels
Display aspect ratio : 2.35:1
Original display aspect ratio : 2.35:1
Frame rate mode : Constant
Frame rate : 24.000 FPS
Color space : YUV
Chroma subsampling : 4:2:0
Bit depth : 8 bits
Scan type : Progressive
Bits/(Pixel*Frame) : 0.118
Stream size : 648 MiB (74%)
Default : Yes
Forced : No
Color range : Limited
Color primaries : BT.709
Transfer characteristics : BT.709
Matrix coefficients : BT.709

Audio
ID : 2
Format : E-AC-3
Format/Info : Enhanced Audio Coding 3
Format settings, Endianness : Big
Codec ID : A_EAC3
Duration : 46 min 1 s
Bit rate mode : Constant
Bit rate : 640 kb/s
Channel(s) : 6 channels
Channel positions : Front: L C R, Side: L R, LFE
Sampling rate : 48.0 kHz
Frame rate : 187.500 FPS (256 SPF)
Compression mode : Lossy
Stream size : 211 MiB (24%)
Language : English
Service kind : Complete Main
Default : Yes
Forced : No

Text
ID : 3
Format : UTF-8
Codec ID : S_TEXT/UTF8
Codec ID/Info : UTF-8 Plain Text
Title : English (SDH)
Language : English
Default : No
Forced : No





Why Women Kill S02E04


Why Women Kill S02E04


Why Women Kill S02E04


Why Women Kill S02E04


Why Women Kill S02E04

All episodes