Index
# A B C D E F G H I J K L M N O P Q R S T U V W Y Z
Tags
Language
Tags

Featured TV Shows


Why Women Kill S02E05

Posted By: Tavaz
720p (HD) / WEBRip IMDb
Why Women Kill S02E05

Why Women Kill S02E05
WEBRip | MKV | 1280x544 | English | H264 @ 2187 kbps | E-AC-3 @ 640 kbps | 48 min 44 s | 1 006 MiB
Subtitles: English
Genre: Comedy, Crime, Drama


Three women living in three different decades: a housewife in the '60s, a socialite in the '80s and a lawyer in 2018, deal with infidelity in their marriages.

8cc61520e28747e2bef33ff7e7c59512.mkv (1005.7 MB)



General
Unique ID : 279521958748412653956722021791749061198 (0xD249F89684CE1CAF59272066F4DB3A4E)
Complete name : ./8cc61520e28747e2bef33ff7e7c59512.mkv
Format : Matroska
Format version : Version 4 / Version 2
File size : 1 006 MiB
Duration : 48 min 44 s
Overall bit rate : 2 885 kb/s
Writing application : mkvmerge v58.0.0 ('Supper's Ready') 64-bit
Writing library : libebml v1.4.2 + libmatroska v1.6.4

Video
ID : 1
Format : AVC
Format/Info : Advanced Video Codec
Format profile : High@L3.1
Format settings : CABAC / 4 Ref Frames
Format settings, CABAC : Yes
Format settings, RefFrames : 4 frames
Codec ID : V_MPEG4/ISO/AVC
Duration : 48 min 44 s
Bit rate mode : Constant
Bit rate : 2 187 kb/s
Nominal bit rate : 6 000 kb/s
Width : 1 280 pixels
Height : 544 pixels
Display aspect ratio : 2.35:1
Original display aspect ratio : 2.35:1
Frame rate mode : Constant
Frame rate : 24.000 FPS
Color space : YUV
Chroma subsampling : 4:2:0
Bit depth : 8 bits
Scan type : Progressive
Bits/(Pixel*Frame) : 0.131
Stream size : 763 MiB (76%)
Default : Yes
Forced : No
Color range : Limited
Color primaries : BT.709
Transfer characteristics : BT.709
Matrix coefficients : BT.709

Audio
ID : 2
Format : E-AC-3
Format/Info : Enhanced Audio Coding 3
Format settings, Endianness : Big
Codec ID : A_EAC3
Duration : 48 min 44 s
Bit rate mode : Constant
Bit rate : 640 kb/s
Channel(s) : 6 channels
Channel positions : Front: L C R, Side: L R, LFE
Sampling rate : 48.0 kHz
Frame rate : 187.500 FPS (256 SPF)
Compression mode : Lossy
Stream size : 223 MiB (22%)
Language : English
Service kind : Complete Main
Default : Yes
Forced : No

Text
ID : 3
Format : UTF-8
Codec ID : S_TEXT/UTF8
Codec ID/Info : UTF-8 Plain Text
Title : English (SDH)
Language : English
Default : No
Forced : No





Why Women Kill S02E05


Why Women Kill S02E05


Why Women Kill S02E05


Why Women Kill S02E05


Why Women Kill S02E05

All episodes