Index
# A B C D E F G H I J K L M N O P Q R S T U V W X Y Z
Tags
Language
Tags
May 2024
Su Mo Tu We Th Fr Sa
28 29 30 1 2 3 4
5 6 7 8 9 10 11
12 13 14 15 16 17 18
19 20 21 22 23 24 25
26 27 28 29 30 31 1

Featured TV Shows


Dynasty S01E04

Posted By: Tavaz
1080p (FullHD) / BDRip IMDb
Dynasty S01E04

Dynasty S01E04
BluRay Remux | MKV | 1920x1080 | English | H264 @ 18223 kbps | DTS | 59 min 10 s | 8.50 GiB
Subtitles: Nederlands, Français, English
Genre: Drama


Follows two of America’s wealthiest families, the Carringtons and the Colbys, as they feud for control over their fortune and their children focusing on Fallon Carrington, the daughter of billionaire Blake Carrington, and her soon-to-be stepmother, Cristal, a Hispanic woman marrying into this WASP family and America’s most powerful class.

Winning.Time.The.Rise.of.the.Lakers.Dynasty.S01E04.Who.The.Fuck.Is.Jack.Mckinney.1080p.BluRay.REMUX.AVC.DTS-HD.MA.5.1-NOGRP.part1.rar (4.5 GB)
Winning.Time.The.Rise.of.the.Lakers.Dynasty.S01E04.Who.The.Fuck.Is.Jack.Mckinney.1080p.BluRay.REMUX.AVC.DTS-HD.MA.5.1-NOGRP.part2.rar (4.1 GB)



General
Unique ID : 94783287083280256969054390449629402093 (0x474E98DA5F993D21F70CDC71AED993ED)
Complete name : ./65c5de0e4ee94cd9b640b4178cbb9645.mkv
Format : Matroska
Format version : Version 4 / Version 2
File size : 8.50 GiB
Duration : 59 min 10 s
Overall bit rate mode : Variable
Overall bit rate : 20.6 Mb/s
Movie name : Winning.Time.The.Rise.of.the.Lakers.Dynasty.S01E04.Who.The.Fuck.Is.Jack.Mckinney.1080p.Blu-ray.Remux.AVC.DTS-HD.MA.5.1-SiCFoI
Encoded date : UTC 2022-10-07 17:01:08
Writing application : mkvmerge v70.0.0 ('Caught A Lite Sneeze') 64-bit
Writing library : libebml v1.4.2 + libmatroska v1.6.4

Video
ID : 1
ID in the original source medium : 4113 (0x1011)
Format : AVC
Format/Info : Advanced Video Codec
Format profile : High@L4.1
Format settings : CABAC / 4 Ref Frames
Format settings, CABAC : Yes
Format settings, RefFrames : 4 frames
Codec ID : V_MPEG4/ISO/AVC
Duration : 59 min 10 s
Bit rate mode : Variable
Bit rate : 18.2 Mb/s
Maximum bit rate : 40.0 Mb/s
Width : 1 920 pixels
Height : 1 080 pixels
Display aspect ratio : 16:9
Frame rate mode : Constant
Frame rate : 23.976 (24000/1001) FPS
Color space : YUV
Chroma subsampling : 4:2:0
Bit depth : 8 bits
Scan type : Progressive
Bits/(Pixel*Frame) : 0.367
Stream size : 7.53 GiB (89%)
Title : Winning.Time.The.Rise.of.the.Lakers.Dynasty.S01E04.Who.The.Fuck.Is.Jack.Mckinney.1080p.Blu-ray.Remux.AVC.DTS-HD.MA.5.1-SiCFoI
Default : Yes
Forced : No
Original source medium : Blu-ray

Audio
ID : 2
ID in the original source medium : 4352 (0x1100)
Format : DTS
Format/Info : Digital Theater Systems
Format profile : MA / Core
Mode : 16
Format settings, Endianness : Big
Codec ID : A_DTS
Duration : 59 min 9 s
Bit rate mode : Variable / Constant
Bit rate : 2 290 kb/s / 1 509 kb/s
Channel(s) : 6 channels
Channel positions : Front: L C R, Side: L R, LFE
Sampling rate : 48.0 kHz
Frame rate : 93.750 FPS (512 SPF)
Bit depth : 16 bits
Compression mode : Lossless / Lossy
Stream size : 969 MiB (11%)
Title : DTS-HD MA 5.1
Language : English
Default : Yes
Forced : No
Original source medium : Blu-ray

Text #1
ID : 3
Format : UTF-8
Codec ID : S_TEXT/UTF8
Codec ID/Info : UTF-8 Plain Text
Duration : 57 min 46 s
Bit rate : 84 b/s
Count of elements : 1066
Stream size : 35.9 KiB (0%)
Title : English
Language : English
Default : Yes
Forced : No

Text #2
ID : 4
Format : UTF-8
Codec ID : S_TEXT/UTF8
Codec ID/Info : UTF-8 Plain Text
Duration : 57 min 47 s
Bit rate : 87 b/s
Count of elements : 1112
Stream size : 37.2 KiB (0%)
Title : English SDH
Language : English
Default : No
Forced : No

Text #3
ID : 5
ID in the original source medium : 4608 (0x1200)
Format : PGS
Muxing mode : zlib
Codec ID : S_HDMV/PGS
Codec ID/Info : Picture based subtitle format used on BDs/HD-DVDs
Duration : 57 min 47 s
Bit rate : 53.8 kb/s
Count of elements : 2232
Stream size : 22.3 MiB (0%)
Title : English (SDH)
Language : English
Default : Yes
Forced : No
Original source medium : Blu-ray

Text #4
ID : 6
ID in the original source medium : 4609 (0x1201)
Format : PGS
Muxing mode : zlib
Codec ID : S_HDMV/PGS
Codec ID/Info : Picture based subtitle format used on BDs/HD-DVDs
Duration : 58 min 46 s
Bit rate : 44.7 kb/s
Count of elements : 2062
Stream size : 18.8 MiB (0%)
Title : French
Language : French
Default : No
Forced : No
Original source medium : Blu-ray

Text #5
ID : 7
ID in the original source medium : 4610 (0x1202)
Format : PGS
Muxing mode : zlib
Codec ID : S_HDMV/PGS
Codec ID/Info : Picture based subtitle format used on BDs/HD-DVDs
Duration : 58 min 48 s
Bit rate : 49.8 kb/s
Count of elements : 2150
Stream size : 20.9 MiB (0%)
Title : Dutch
Language : Dutch
Default : No
Forced : No
Original source medium : Blu-ray

Menu
00:00:00.000 : en:Chapter 01
00:03:46.059 : en:Chapter 02
00:11:36.570 : en:Chapter 03
00:20:54.378 : en:Chapter 04
00:30:33.665 : en:Chapter 05
00:38:08.035 : en:Chapter 06
00:47:43.694 : en:Chapter 07
00:56:27.550 : en:Chapter 08
00:58:00.143 : en:Chapter 09





Dynasty S01E04


Dynasty S01E04


Dynasty S01E04


Dynasty S01E04


Dynasty S01E04

All episodes