Featured TV Shows


Yellowstone S02E03

Posted By: Tavaz
Yellowstone S02E03

Yellowstone S02E03
MKV | 1280x640 | English | H265 @ 572 kbps | AC-3 @ 384 kbps | 47 min 33 s | 332 MiB
Subtitles: English
Genre: Drama, Western


Follow the violent world of the Dutton family, who controls the largest contiguous ranch in the United States. Led by their patriarch John Dutton, the family defends their property against constant attack by land developers, an Indian reservation, and America’s first National Park.

3f9ef0cd4970455b8aa24f9bd1d2c84f.mkv (332.0 MB)



General
Unique ID : 50440247176635768557393432338450518954 (0x25F27030C1DFB322F9A629C1481293AA)
Complete name : ./3f9ef0cd4970455b8aa24f9bd1d2c84f.mkv
Format : Matroska
Format version : Version 4 / Version 2
File size : 332 MiB
Duration : 47 min 33 s
Overall bit rate : 976 kb/s
Movie name : Yellowstone.2018.S02E03.720p.HDTV.x264-LucidTV
Writing application : Lavf58.27.103
Writing library : Lavf58.27.103
ErrorDetectionType : Per level 1

Video
ID : 1
Format : HEVC
Format/Info : High Efficiency Video Coding
Format profile : Main 10@L3.1@Main
Codec ID : V_MPEGH/ISO/HEVC
Duration : 47 min 33 s
Bit rate : 573 kb/s
Width : 1 280 pixels
Height : 640 pixels
Display aspect ratio : 2.000
Frame rate mode : Constant
Frame rate : 23.976 (24000/1001) FPS
Color space : YUV
Chroma subsampling : 4:2:0
Bit depth : 10 bits
Bits/(Pixel*Frame) : 0.029
Stream size : 195 MiB (59%)
Writing library : x265 3.0_Au+21-bac0e1acb874:[Windows][GCC 8.3.1][64 bit] 10bit
Encoding settings : cpuid=1111039 / frame-threads=4 / numa-pools=16 / wpp / no-pmode / no-pme / no-psnr / no-ssim / log-level=2 / input-csp=1 / input-res=1280x640 / interlace=0 / total-frames=0 / level-idc=0 / high-tier=1 / uhd-bd=0 / ref=1 / no-allow-non-conformance / no-repeat-headers / annexb / no-aud / no-hrd / info / hash=0 / no-temporal-layers / open-gop / min-keyint=23 / keyint=250 / gop-lookahead=0 / bframes=3 / b-adapt=0 / b-pyramid / bframe-bias=0 / rc-lookahead=5 / lookahead-slices=0 / scenecut=0 / radl=0 / no-splice / no-intra-refresh / ctu=32 / min-cu-size=16 / no-rect / no-amp / max-tu-size=32 / tu-inter-depth=1 / tu-intra-depth=1 / limit-tu=0 / rdoq-level=0 / dynamic-rd=0.00 / no-ssim-rd / no-signhide / no-tskip / nr-intra=0 / nr-inter=0 / no-constrained-intra / strong-intra-smoothing / max-merge=2 / limit-refs=0 / no-limit-modes / me=0 / subme=0 / merange=57 / temporal-mvp / no-weightp / no-weightb / no-analyze-src-pics / deblock=0:0 / no-sao / no-sao-non-deblock / rd=2 / early-skip / rskip / fast-intra / no-tskip-fast / no-cu-lossless / no-b-intra / no-splitrd-skip / rdpenalty=0 / psy-rd=2.00 / psy-rdoq=0.00 / no-rd-refine / no-lossless / cbqpoffs=0 / crqpoffs=0 / rc=crf / crf=22.0 / qcomp=0.60 / qpstep=4 / stats-write=0 / stats-read=0 / ipratio=1.40 / pbratio=1.30 / aq-mode=1 / aq-strength=0.00 / cutree / zone-count=0 / no-strict-cbr / qg-size=32 / no-rc-grain / qpmax=69 / qpmin=0 / no-const-vbv / sar=1 / overscan=0 / videoformat=5 / range=0 / colorprim=2 / transfer=2 / colormatrix=2 / chromaloc=0 / display-window=0 / max-cll=0,0 / min-luma=0 / max-luma=1023 / log2-max-poc-lsb=8 / vui-timing-info / vui-hrd-info / slices=1 / no-opt-qp-pps / no-opt-ref-list-length-pps / no-multi-pass-opt-rps / scenecut-bias=0.05 / no-opt-cu-delta-qp / no-aq-motion / no-hdr / no-hdr-opt / no-dhdr10-opt / no-idr-recovery-sei / analysis-reuse-level=5 / scale-factor=0 / refine-intra=0 / refine-inter=0 / refine-mv=0 / refine-ctu-distortion=0 / no-limit-sao / ctu-info=0 / no-lowpass-dct / refine-analysis-type=0 / copy-pic=1 / max-ausize-factor=1.0 / no-dynamic-refine / no-single-sei / no-hevc-aq / no-svt / qp-adaptation-range=1.00
Language : English
Default : Yes
Forced : No
Statistics Tags Issue : mkvmerge v24.0.0 ('Beyond The Pale') 64-bit 2019-07-11 03:57:37 / Lavf58.27.103
FromStats_BitRate : 2414791
FromStats_Duration : 00:47:33.017000000
FromStats_FrameCount : 68402
FromStats_StreamSize : 861177578

Audio
ID : 2
Format : AC-3
Format/Info : Audio Coding 3
Format settings, Endianness : Big
Codec ID : A_AC3
Duration : 47 min 33 s
Bit rate mode : Constant
Bit rate : 384 kb/s
Channel(s) : 2 channels
Channel positions : Front: L R
Sampling rate : 48.0 kHz
Frame rate : 31.250 FPS (1536 SPF)
Bit depth : 16 bits
Compression mode : Lossy
Stream size : 131 MiB (39%)
Language : English
Service kind : Complete Main
Default : Yes
Forced : No
Statistics Tags Issue : mkvmerge v24.0.0 ('Beyond The Pale') 64-bit 2019-07-11 03:57:37 / Lavf58.27.103
FromStats_BitRate : 384000
FromStats_Duration : 00:47:33.024000000
FromStats_FrameCount : 89157
FromStats_StreamSize : 136945152

Text
ID : 3
Format : ASS
Codec ID : S_TEXT/ASS
Codec ID/Info : Advanced Sub Station Alpha
Compression mode : Lossless
Writing library : Lavc58.52.100 ssa
Language : English
Default : No
Forced : No
Statistics Tags Issue : mkvmerge v24.0.0 ('Beyond The Pale') 64-bit 2019-07-11 03:57:37 / Lavf58.27.103
FromStats_BitRate : 75
FromStats_Duration : 00:47:31.331000000
FromStats_FrameCount : 676
FromStats_StreamSize : 26445





Yellowstone S02E03


Yellowstone S02E03


Yellowstone S02E03


Yellowstone S02E03


Yellowstone S02E03

All episodes