Featured TV Shows


Yellowstone S02E04

Posted By: Tavaz
720p (HD) / WEBRip IMDb
Yellowstone S02E04

Yellowstone S02E04
WEBRip | MKV | 1280x640 | English | H264 @ 2704 kbps | AAC @ 127 kbps | 46 min 14 s | 937 MiB
Genre: Drama, Western


Follow the violent world of the Dutton family, who controls the largest contiguous ranch in the United States. Led by their patriarch John Dutton, the family defends their property against constant attack by land developers, an Indian reservation, and America’s first National Park.

Yellowstone.2018.S02E04.720p.WEBRip.x264-KOMPOST.mkv (937.5 MB)



General
Unique ID : 64933638254575608662539395300401870690 (0x30D9C38A71DC9010F2F07F16E18FF762)
Complete name : ./Yellowstone.2018.S02E04.720p.WEBRip.x264-KOMPOST.mkv
Format : Matroska
Format version : Version 4 / Version 2
File size : 937 MiB
Duration : 46 min 14 s
Overall bit rate : 2 834 kb/s
Encoded date : UTC 2019-07-18 11:17:20
Writing application : mkvmerge v34.0.0 ('Sight and Seen') 64-bit
Writing library : libebml v1.3.7 + libmatroska v1.5.0

Video
ID : 1
Format : AVC
Format/Info : Advanced Video Codec
Format profile : High@L4.1
Format settings : CABAC / 5 Ref Frames
Format settings, CABAC : Yes
Format settings, RefFrames : 5 frames
Codec ID : V_MPEG4/ISO/AVC
Duration : 46 min 14 s
Bit rate : 2 704 kb/s
Width : 1 280 pixels
Height : 640 pixels
Display aspect ratio : 2.000
Frame rate mode : Constant
Frame rate : 23.976 (23976/1000) FPS
Color space : YUV
Chroma subsampling : 4:2:0
Bit depth : 8 bits
Scan type : Progressive
Bits/(Pixel*Frame) : 0.138
Stream size : 894 MiB (95%)
Writing library : x264 core 157 r2969 d4099dd
Encoding settings : cabac=1 / ref=5 / deblock=1:-3:-3 / analyse=0x3:0x113 / me=umh / subme=8 / psy=1 / psy_rd=1.00:0.00 / mixed_ref=1 / me_range=16 / chroma_me=1 / trellis=2 / 8x8dct=1 / cqm=0 / deadzone=21,11 / fast_pskip=1 / chroma_qp_offset=-2 / threads=18 / lookahead_threads=3 / sliced_threads=0 / nr=0 / decimate=1 / interlaced=0 / bluray_compat=0 / constrained_intra=0 / bframes=3 / b_pyramid=2 / b_adapt=1 / b_bias=0 / direct=3 / weightb=1 / open_gop=0 / weightp=2 / keyint=250 / keyint_min=23 / scenecut=40 / intra_refresh=0 / rc_lookahead=50 / rc=crf / mbtree=1 / crf=18.0 / qcomp=0.60 / qpmin=0 / qpmax=69 / qpstep=4 / ip_ratio=1.40 / aq=1:0.80
Language : English
Default : Yes
Forced : No
Color range : Limited
Matrix coefficients : BT.709

Audio
ID : 2
Format : AAC
Format/Info : Advanced Audio Codec
Format profile : LC
Codec ID : A_AAC-2
Duration : 46 min 14 s
Bit rate : 128 kb/s
Channel(s) : 2 channels
Channel positions : Front: L R
Sampling rate : 48.0 kHz
Frame rate : 46.875 FPS (1024 SPF)
Compression mode : Lossy
Stream size : 42.3 MiB (5%)
Language : English
Default : Yes
Forced : No





Yellowstone S02E04


Yellowstone S02E04


Yellowstone S02E04


Yellowstone S02E04


Yellowstone S02E04

All episodes