Featured TV Shows


Yellowstone S02E05

Posted By: Tavaz
720p (HD) / WEBRip IMDb
Yellowstone S02E05

Yellowstone S02E05
WEBRip | MKV | 1280x720 | English | H264 @ 4499 kbps | E-AC-3 @ 224 kbps | 44 min 58 s | 1.48 GiB
Subtitles: English
Genre: Drama, Western


Follow the violent world of the Dutton family, who controls the largest contiguous ranch in the United States. Led by their patriarch John Dutton, the family defends their property against constant attack by land developers, an Indian reservation, and America’s first National Park.

Yellowstone.2018.S02E05.Touching.Your.Enemy.720p.AMZN.WEB-DL.DDP2.0.H.264-NTb.mkv (1.5 GB)



General
Unique ID : 82975602303680627468540864143243394584 (0x3E6C850BE9A2F4A86DF66B7B9E74BE18)
Complete name : ./Yellowstone.2018.S02E05.Touching.Your.Enemy.720p.AMZN.WEB-DL.DDP2.0.H.264-NTb.mkv
Format : Matroska
Format version : Version 4 / Version 2
File size : 1.48 GiB
Duration : 44 min 58 s
Overall bit rate : 4 725 kb/s
Encoded date : UTC 2019-07-25 19:29:46
Writing application : mkvmerge v23.0.0 ('The Bride Said No') 64-bit
Writing library : libebml v1.3.6 + libmatroska v1.4.9

Video
ID : 1
Format : AVC
Format/Info : Advanced Video Codec
Format profile : High@L3.1
Format settings : CABAC / 4 Ref Frames
Format settings, CABAC : Yes
Format settings, RefFrames : 4 frames
Codec ID : V_MPEG4/ISO/AVC
Duration : 44 min 58 s
Bit rate mode : Constant
Bit rate : 4 499 kb/s
Nominal bit rate : 6 000 kb/s
Width : 1 280 pixels
Height : 720 pixels
Display aspect ratio : 16:9
Frame rate mode : Constant
Frame rate : 23.976 (24000/1001) FPS
Color space : YUV
Chroma subsampling : 4:2:0
Bit depth : 8 bits
Scan type : Progressive
Bits/(Pixel*Frame) : 0.204
Stream size : 1.41 GiB (95%)
Default : Yes
Forced : No
Color range : Limited
Color primaries : BT.709
Transfer characteristics : BT.709
Matrix coefficients : BT.709

Audio
ID : 2
Format : E-AC-3
Format/Info : Enhanced Audio Coding 3
Format settings, Endianness : Big
Codec ID : A_EAC3
Duration : 44 min 58 s
Bit rate mode : Constant
Bit rate : 224 kb/s
Channel(s) : 2 channels
Channel positions : Front: L R
Sampling rate : 48.0 kHz
Frame rate : 187.500 FPS (256 SPF)
Compression mode : Lossy
Stream size : 72.1 MiB (5%)
Language : English
Service kind : Complete Main
Default : Yes
Forced : No

Text
ID : 3
Format : UTF-8
Codec ID : S_TEXT/UTF8
Codec ID/Info : UTF-8 Plain Text
Duration : 44 min 23 s
Bit rate : 64 b/s
Count of elements : 714
Stream size : 21.0 KiB (0%)
Title : SDH
Language : English
Default : No
Forced : No

Menu
00:00:00.000 : en:Studio Logo
00:00:05.000 : en:Scene 2
00:07:26.000 : en:Title Sequence
00:08:27.000 : en:Scene 4
00:20:36.000 : en:Scene 5
00:28:48.000 : en:Scene 6
00:40:06.000 : en:Scene 7
00:44:16.000 : en:End Credits





Yellowstone S02E05


Yellowstone S02E05


Yellowstone S02E05


Yellowstone S02E05


Yellowstone S02E05

All episodes