Please register here if you want to download anything!

If domain in your address bar is different from the list below
PLEASE LEAVE THAT SITE IMMEDIATELY
❗IT'S A DANGEROUS FAKE❗



Spicy Magazines for Men! ;-)

Featured TV Shows


Young Justice S03E22

Posted By: Tavaz
720p (HD) / WEB-DL IMDb
Young Justice S03E22

Young Justice S03E22
WEB-DL | MKV | 1280x720 | English | H264 @ 2985 kbps | AAC @ 127 kbps | 24 min 19 s | 542 MiB
Subtitles: English
Genre: Animation


Young Justice is an Emmy Award winning American animated television series created by Brandon Vietti and Greg Weisman for Cartoon Network. Despite its title, it is not a direct adaptation of Peter David, Todd Dezago and Todd Nauck's Young Justice comic series, but rather an adaptation of the entire DC Universe with a focus on young superheroes. The series follows the lives of teenaged heroes and sidekicks who are members of a fictional covert operation group called The Team. The Team is essentially a young counterpart to the famous adult team, the Justice League. The main setting is the fictional universe of Earth-16, during a time period in which superheroes are a relatively recent phenomenon. The series debuted with an hour long special on November 26, 2010 with the airing of the first two episodes, "Independence Day" and "Fireworks". Young Justice premiered on September 9, 2011 on Teletoon, in Canada. The series ended alongside fellow DC Nation show Green Lantern: The Animated Series after its second season came to a conclusion during spring 2013. Because of this, their slots will be taken by new shows Beware the Batman and Teen Titans Go!, respectively.

43794ffe81bd4233885c56b1e7225127.mkv (542.1 MB)



General
Unique ID : 121547416980332434234062958233571459105 (0x5B712E562E9DA90A3C7244C3645E8021)
Complete name : ./43794ffe81bd4233885c56b1e7225127.mkv
Format : Matroska
Format version : Version 4 / Version 2
File size : 542 MiB
Duration : 24 min 19 s
Overall bit rate : 3 116 kb/s
Encoded date : UTC 2019-08-13 14:16:35
Writing application : mkvmerge v19.0.0 ('Brave Captain') 64-bit
Writing library : libebml v1.3.5 + libmatroska v1.4.8

Video
ID : 1
Format : AVC
Format/Info : Advanced Video Codec
Format profile : Baseline@L3.1
Format settings : 3 Ref Frames
Format settings, CABAC : No
Format settings, RefFrames : 3 frames
Format settings, GOP : M=1, N=48
Codec ID : V_MPEG4/ISO/AVC
Duration : 24 min 19 s
Bit rate : 2 986 kb/s
Width : 1 280 pixels
Height : 720 pixels
Display aspect ratio : 16:9
Frame rate mode : Constant
Frame rate : 23.976 (24000/1001) FPS
Color space : YUV
Chroma subsampling : 4:2:0
Bit depth : 8 bits
Scan type : Progressive
Bits/(Pixel*Frame) : 0.135
Stream size : 519 MiB (96%)
Writing library : Zencoder Video Encoding System
Default : Yes
Forced : No
Color range : Limited
Color primaries : BT.709
Transfer characteristics : BT.709
Matrix coefficients : BT.709

Audio
ID : 2
Format : AAC
Format/Info : Advanced Audio Codec
Format profile : LC
Codec ID : A_AAC-2
Duration : 24 min 19 s
Bit rate : 128 kb/s
Channel(s) : 2 channels
Channel positions : Front: L R
Sampling rate : 48.0 kHz
Frame rate : 46.875 FPS (1024 SPF)
Compression mode : Lossy
Stream size : 22.2 MiB (4%)
Language : English
Default : Yes
Forced : No

Text
ID : 3
Format : UTF-8
Codec ID : S_TEXT/UTF8
Codec ID/Info : UTF-8 Plain Text
Duration : 22 min 58 s
Bit rate : 104 b/s
Count of elements : 512
Stream size : 17.6 KiB (0%)
Title : English (SDH)
Language : English
Default : No
Forced : No





Young Justice S03E22


Young Justice S03E22


Young Justice S03E22


Young Justice S03E22


Young Justice S03E22

All episodes