Index
# A B C D E F G H I J K L M N O P Q R S T U V W Y Z
Tags
Language
Tags

Featured TV Shows


Young Justice S04E08

Posted By: Tavaz
720p (HD) / WEBRip IMDb
Young Justice S04E08

Young Justice S04E08
WEBRip | MKV | 1280x720 | English | H264 @ 3196 kbps | AC-3 @ 384 kbps | 25 min 4 s | 642 MiB
Subtitles: Español, Português, English
Genre: Animation


Teenage superheroes strive to prove themselves as members of the Justice League.

44105a84f2144378bbdbfa572d2f380d.mkv (642.5 MB)



General
Unique ID : 308059626906633135903302982041397725243 (0xE7C220424C3DF6A1C4EB301A37F1883B)
Complete name : ./44105a84f2144378bbdbfa572d2f380d.mkv
Format : Matroska
Format version : Version 4 / Version 2
File size : 642 MiB
Duration : 25 min 4 s
Overall bit rate mode : Variable
Overall bit rate : 3 583 kb/s
Writing application : mkvmerge v63.0.0 ('Everything') 64-bit
Writing library : libebml v1.4.2 + libmatroska v1.6.4

Video
ID : 1
Format : AVC
Format/Info : Advanced Video Codec
Format profile : Main@L3.1
Format settings : CABAC / 4 Ref Frames
Format settings, CABAC : Yes
Format settings, RefFrames : 4 frames
Codec ID : V_MPEG4/ISO/AVC
Duration : 25 min 4 s
Bit rate mode : Variable
Bit rate : 3 197 kb/s
Nominal bit rate : 3 400 kb/s
Maximum bit rate : 5 100 kb/s
Width : 1 280 pixels
Height : 720 pixels
Display aspect ratio : 16:9
Frame rate mode : Constant
Frame rate : 23.976 (24000/1001) FPS
Color space : YUV
Chroma subsampling : 4:2:0
Bit depth : 8 bits
Scan type : Progressive
Bits/(Pixel*Frame) : 0.145
Stream size : 573 MiB (89%)
Writing library : x264 core 157 r2965 861cec4
Encoding settings : cabac=1 / ref=4 / deblock=1:0:0 / analyse=0x1:0x111 / me=hex / subme=7 / psy=1 / psy_rd=1.00:0.00 / mixed_ref=1 / me_range=16 / chroma_me=1 / trellis=1 / 8x8dct=0 / cqm=0 / deadzone=21,11 / fast_pskip=1 / chroma_qp_offset=-2 / threads=22 / lookahead_threads=3 / sliced_threads=0 / nr=0 / decimate=1 / interlaced=0 / bluray_compat=0 / constrained_intra=0 / bframes=3 / b_pyramid=2 / b_adapt=1 / b_bias=0 / direct=1 / weightb=1 / open_gop=0 / weightp=2 / keyint=96 / keyint_min=96 / scenecut=40 / intra_refresh=0 / rc_lookahead=40 / rc=2pass / mbtree=1 / bitrate=3400 / ratetol=1.0 / qcomp=0.60 / qpmin=0 / qpmax=69 / qpstep=4 / cplxblur=20.0 / qblur=0.5 / vbv_maxrate=5100 / vbv_bufsize=2550 / nal_hrd=vbr / filler=0 / ip_ratio=1.40 / aq=1:1.00
Default : Yes
Forced : No
Color range : Limited
Color primaries : BT.709
Transfer characteristics : BT.709
Matrix coefficients : BT.709

Audio
ID : 2
Format : AC-3
Format/Info : Audio Coding 3
Format settings, Endianness : Big
Codec ID : A_AC3
Duration : 25 min 4 s
Bit rate mode : Constant
Bit rate : 384 kb/s
Channel(s) : 6 channels
Channel positions : Front: L C R, Side: L R, LFE
Sampling rate : 48.0 kHz
Frame rate : 31.250 FPS (1536 SPF)
Bit depth : 16 bits
Compression mode : Lossy
Stream size : 68.9 MiB (11%)
Language : English
Service kind : Complete Main
Default : Yes
Forced : No

Text #1
ID : 3
Format : UTF-8
Codec ID : S_TEXT/UTF8
Codec ID/Info : UTF-8 Plain Text
Duration : 23 min 47 s
Bit rate : 73 b/s
Count of elements : 376
Stream size : 12.8 KiB (0%)
Language : English
Default : No
Forced : No

Text #2
ID : 4
Format : UTF-8
Codec ID : S_TEXT/UTF8
Codec ID/Info : UTF-8 Plain Text
Duration : 23 min 50 s
Bit rate : 80 b/s
Count of elements : 391
Stream size : 14.0 KiB (0%)
Title : SDH
Language : English
Default : No
Forced : No

Text #3
ID : 5
Format : UTF-8
Codec ID : S_TEXT/UTF8
Codec ID/Info : UTF-8 Plain Text
Duration : 23 min 43 s
Bit rate : 77 b/s
Count of elements : 375
Stream size : 13.5 KiB (0%)
Language : Spanish
Default : No
Forced : No

Text #4
ID : 6
Format : UTF-8
Codec ID : S_TEXT/UTF8
Codec ID/Info : UTF-8 Plain Text
Duration : 23 min 43 s
Bit rate : 83 b/s
Count of elements : 373
Stream size : 14.5 KiB (0%)
Language : Portuguese
Default : No
Forced : No

Menu
00:00:00.000 : en:Chapter 1
00:01:19.454 : en:Intro
00:01:48.943 : en:Chapter 2
00:07:47.592 : en:Chapter 3
00:14:28.450 : en:Chapter 4
00:24:57.000 : en:Credits





Young Justice S04E08


Young Justice S04E08


Young Justice S04E08


Young Justice S04E08


Young Justice S04E08

All episodes