Featured TV Shows


Young Sheldon S01E10

Posted By: Tavaz
SD / WEB-DL IMDb
Young Sheldon S01E10

Young Sheldon S01E10
WEB-DL | MKV | 720x404 | Italian | H264 @ 1190 kbps | AAC @ 112 kbps | 18 min 4 s | 175 MiB
Genre: Commedia

Sheldon Cooper, un giovane genio del Texas orientale, all'età di nove anni si trova a frequentare il liceo. La sua infanzia trascorre in una famiglia in cui si trova poco a suo agio, tra una madre fervente cristiana rinata, un padre alcolizzato e i due fratelli che non perdono occasione di prenderlo in giro o renderlo vittima dei loro scherzi.

Young.Sheldon.1x10.Una.Piuma.D.Aquila.Fagiolini.E.Un.Eschimese.ITA.WEBMux.x264-NovaRip.mkv (175.3 MB)



General
Unique ID : 218440672789997489666478934553817282999 (0xA45624ADFCBD9BBCE7278BAB35B879B7)
Complete name : ./Young.Sheldon.1x10.Una.Piuma.D.Aquila.Fagiolini.E.Un.Eschimese.ITA.WEBMux.x264-NovaRip.mkv
Format : Matroska
Format version : Version 2
File size : 175 MiB
Duration : 18 min 4 s
Overall bit rate : 1 355 kb/s
Encoded date : UTC 2018-03-30 18:00:14
Writing application : mkvmerge v8.5.2 ('Crosses') 64bit
Writing library : libebml v1.3.3 + libmatroska v1.4.4

Video
ID : 1
Format : AVC
Format/Info : Advanced Video Codec
Format profile : High@L3.1
Format settings : CABAC / 6 Ref Frames
Format settings, CABAC : Yes
Format settings, RefFrames : 6 frames
Codec ID : V_MPEG4/ISO/AVC
Duration : 18 min 4 s
Bit rate : 1 190 kb/s
Width : 720 pixels
Height : 404 pixels
Display aspect ratio : 16:9
Frame rate mode : Constant
Frame rate : 25.000 FPS
Original frame rate : 23.976 (24000/1001) FPS
Color space : YUV
Chroma subsampling : 4:2:0
Bit depth : 8 bits
Scan type : Progressive
Bits/(Pixel*Frame) : 0.164
Stream size : 160 MiB (92%)
Writing library : x264 core 148 r2762 90a61ec
Encoding settings : cabac=1 / ref=6 / deblock=1:-2:-2 / analyse=0x3:0x133 / me=umh / subme=7 / psy=1 / psy_rd=1.00:0.00 / mixed_ref=1 / me_range=16 / chroma_me=1 / trellis=2 / 8x8dct=1 / cqm=0 / deadzone=21,11 / fast_pskip=0 / chroma_qp_offset=-2 / threads=6 / lookahead_threads=1 / sliced_threads=0 / nr=0 / decimate=1 / interlaced=0 / bluray_compat=0 / constrained_intra=0 / bframes=5 / b_pyramid=2 / b_adapt=2 / b_bias=0 / direct=3 / weightb=1 / open_gop=0 / weightp=2 / keyint=250 / keyint_min=23 / scenecut=40 / intra_refresh=0 / rc_lookahead=40 / rc=2pass / mbtree=1 / bitrate=1190 / ratetol=1.0 / qcomp=0.60 / qpmin=0 / qpmax=69 / qpstep=4 / cplxblur=20.0 / qblur=0.5 / ip_ratio=1.40 / aq=1:1.00
Language : English
Default : Yes
Forced : Yes

Audio
ID : 2
Format : AAC
Format/Info : Advanced Audio Codec
Format profile : LC
Codec ID : A_AAC-2
Duration : 18 min 4 s
Bit rate : 112 kb/s
Channel(s) : 2 channels
Channel positions : Front: L R
Sampling rate : 48.0 kHz
Frame rate : 46.875 FPS (1024 SPF)
Compression mode : Lossy
Delay relative to video : 9 ms
Stream size : 14.5 MiB (8%)
Title : ITA
Language : Italian
Default : Yes
Forced : Yes





Young Sheldon S01E10


Young Sheldon S01E10


Young Sheldon S01E10


Young Sheldon S01E10


Young Sheldon S01E10

All episodes