Featured TV Shows


Young Sheldon S02E01

Posted By: Tavaz
1080p (FullHD) / WEB-DL IMDb
Young Sheldon S02E01

Young Sheldon S02E01
WEB-DL | MKV | 1920x1080 | Italian / English | H264 @ 9277 kbps | AC-3 @ 192 kbps | 18 min 34 s | 1.28 GiB
Genre: Comedy

The early life of child genius Sheldon Cooper, later seen in The Big Bang Theory.

Young.Sheldon.2x01.Un.Ronzio.Acuto.E.Rotelle.ITA-ENG.1080p.WEBMux.x264-NovaRip.mkv (1.3 GB)



General
Unique ID : 117553945061455176550598441392971715507 (0x587010F837377498F5DA76C614D013B3)
Complete name : ./Young.Sheldon.2x01.Un.Ronzio.Acuto.E.Rotelle.ITA-ENG.1080p.WEBMux.x264-NovaRip.mkv
Format : Matroska
Format version : Version 2
File size : 1.28 GiB
Duration : 18 min 34 s
Overall bit rate : 9 856 kb/s
Encoded date : UTC 2019-02-23 07:09:31
Writing application : mkvmerge v8.5.2 ('Crosses') 64bit
Writing library : libebml v1.3.3 + libmatroska v1.4.4

Video
ID : 1
Format : AVC
Format/Info : Advanced Video Codec
Format profile : High@L4
Format settings : CABAC / 4 Ref Frames
Format settings, CABAC : Yes
Format settings, RefFrames : 4 frames
Codec ID : V_MPEG4/ISO/AVC
Duration : 18 min 34 s
Bit rate : 9 277 kb/s
Width : 1 920 pixels
Height : 1 080 pixels
Display aspect ratio : 16:9
Frame rate mode : Constant
Frame rate : 25.000 FPS
Original frame rate : 23.976 (24000/1001) FPS
Color space : YUV
Chroma subsampling : 4:2:0
Bit depth : 8 bits
Scan type : Progressive
Bits/(Pixel*Frame) : 0.179
Stream size : 1.20 GiB (94%)
Language : English
Default : Yes
Forced : Yes
Color range : Limited
Color primaries : BT.709
Transfer characteristics : BT.709
Matrix coefficients : BT.709

Audio #1
ID : 2
Format : AC-3
Format/Info : Audio Coding 3
Format settings, Endianness : Big
Codec ID : A_AC3
Duration : 18 min 34 s
Bit rate mode : Constant
Bit rate : 192 kb/s
Channel(s) : 2 channels
Channel positions : Front: L R
Sampling rate : 48.0 kHz
Frame rate : 31.250 FPS (1536 SPF)
Bit depth : 16 bits
Compression mode : Lossy
Stream size : 25.5 MiB (2%)
Title : ITA
Language : Italian
Service kind : Complete Main
Default : Yes
Forced : Yes

Audio #2
ID : 3
Format : AC-3
Format/Info : Audio Coding 3
Format settings, Endianness : Big
Codec ID : A_AC3
Duration : 18 min 34 s
Bit rate mode : Constant
Bit rate : 384 kb/s
Channel(s) : 6 channels
Channel positions : Front: L C R, Side: L R, LFE
Sampling rate : 48.0 kHz
Frame rate : 31.250 FPS (1536 SPF)
Bit depth : 16 bits
Compression mode : Lossy
Stream size : 51.0 MiB (4%)
Title : ENG
Language : English
Service kind : Complete Main
Default : No
Forced : No





Young Sheldon S02E01


Young Sheldon S02E01


Young Sheldon S02E01


Young Sheldon S02E01


Young Sheldon S02E01

All episodes