Index
# A B C D E F G H I J K L M N O P Q R S T U V W X Y Z
Tags
Language
Tags
July 2024
Su Mo Tu We Th Fr Sa
30 1 2 3 4 5 6
7 8 9 10 11 12 13
14 15 16 17 18 19 20
21 22 23 24 25 26 27
28 29 30 31 1 2 3

Featured TV Shows


Young Sheldon S02E12

Posted By: Tavaz
1080p (FullHD) / WEB-DL IMDb
Young Sheldon S02E12

Young Sheldon S02E12
WEB-DL | MKV | 1920x1080 | Italian / English | H264 @ 11316 kbps | AC-3 @ 192 kbps | 17 min 48 s | 1.48 GiB
Genre: Comedy


The early life of child genius Sheldon Cooper, later seen in The Big Bang Theory.

Young.Sheldon.2x12.Un.Mal.Di.Pancia.E.La.Metafora.Della.Balena.ITA-ENG.1080p.WEBMux.x264-NovaRip.mkv (1.5 GB)



General
Unique ID : 179919208768370260233288875286962230798 (0x875B2DDE54A4946D43C14E992649D60E)
Complete name : ./Young.Sheldon.2x12.Un.Mal.Di.Pancia.E.La.Metafora.Della.Balena.ITA-ENG.1080p.WEBMux.x264-NovaRip.mkv
Format : Matroska
Format version : Version 2
File size : 1.48 GiB
Duration : 17 min 48 s
Overall bit rate : 11.9 Mb/s
Encoded date : UTC 2019-06-01 18:28:20
Writing application : mkvmerge v8.5.2 ('Crosses') 64bit
Writing library : libebml v1.3.3 + libmatroska v1.4.4

Video
ID : 1
Format : AVC
Format/Info : Advanced Video Codec
Format profile : High@L4
Format settings : CABAC / 4 Ref Frames
Format settings, CABAC : Yes
Format settings, RefFrames : 4 frames
Codec ID : V_MPEG4/ISO/AVC
Duration : 17 min 48 s
Bit rate : 11.3 Mb/s
Width : 1 920 pixels
Height : 1 080 pixels
Display aspect ratio : 16:9
Frame rate mode : Constant
Frame rate : 25.000 FPS
Original frame rate : 24.000 FPS
Color space : YUV
Chroma subsampling : 4:2:0
Bit depth : 8 bits
Scan type : Progressive
Bits/(Pixel*Frame) : 0.218
Stream size : 1.41 GiB (95%)
Language : English
Default : Yes
Forced : Yes
Color range : Limited
Color primaries : BT.709
Transfer characteristics : BT.709
Matrix coefficients : BT.709

Audio #1
ID : 2
Format : AC-3
Format/Info : Audio Coding 3
Format settings, Endianness : Big
Codec ID : A_AC3
Duration : 17 min 47 s
Bit rate mode : Constant
Bit rate : 192 kb/s
Channel(s) : 2 channels
Channel positions : Front: L R
Sampling rate : 48.0 kHz
Frame rate : 31.250 FPS (1536 SPF)
Bit depth : 16 bits
Compression mode : Lossy
Stream size : 24.4 MiB (2%)
Title : ITA
Language : Italian
Service kind : Complete Main
Default : Yes
Forced : Yes

Audio #2
ID : 3
Format : AC-3
Format/Info : Audio Coding 3
Format settings, Endianness : Big
Codec ID : A_AC3
Duration : 17 min 47 s
Bit rate mode : Constant
Bit rate : 384 kb/s
Channel(s) : 6 channels
Channel positions : Front: L C R, Side: L R, LFE
Sampling rate : 48.0 kHz
Frame rate : 31.250 FPS (1536 SPF)
Bit depth : 16 bits
Compression mode : Lossy
Stream size : 48.9 MiB (3%)
Title : ENG
Language : English
Service kind : Complete Main
Default : No
Forced : No





Young Sheldon S02E12


Young Sheldon S02E12


Young Sheldon S02E12


Young Sheldon S02E12


Young Sheldon S02E12

All episodes