Featured TV Shows


Young Sheldon S01E01

Posted By: Tavaz
SD / WEBRip IMDb
Young Sheldon S01E01

Young Sheldon S01E01
WEBRip | MKV | 720x404 | German | H264 @ 821 kbps | AC-3 @ 192 kbps | 20 min 26 s | 151 MiB
Genre: Komödie

The early life of child genius Sheldon Cooper, later seen in The Big Bang Theory.

S01E01 German.mkv (151.1 MB)



General
Unique ID : 141499303556420817277803197388533059124 (0x6A73C64B110AFAA035FE2F5853DCCE34)
Complete name : ./Das neunjaehrige Genie S01E01 German/S01E01 German.mkv
Format : Matroska
Format version : Version 2
File size : 151 MiB
Duration : 20 min 26 s
Overall bit rate : 1 034 kb/s
Movie name : Young.Sheldon.S01E01.Sheldon.Newton.und.Euklid.GERMAN.DUBBED.WS.WebRip.x264.REPACK-TVP
Encoded date : UTC 2018-01-08 19:59:14
Writing application : mkvmerge v5.6.0 ('Kenya Kane') built on May 28 2012 06:47:39
Writing library : libebml v1.2.2 + libmatroska v1.3.0

Video
ID : 1
Format : AVC
Format/Info : Advanced Video Codec
Format profile : High@L3.1
Format settings : CABAC / 5 Ref Frames
Format settings, CABAC : Yes
Format settings, RefFrames : 5 frames
Codec ID : V_MPEG4/ISO/AVC
Duration : 20 min 26 s
Bit rate : 821 kb/s
Width : 720 pixels
Height : 404 pixels
Display aspect ratio : 16:9
Frame rate mode : Constant
Frame rate : 25.000 FPS
Original frame rate : 23.976 (24000/1001) FPS
Color space : YUV
Chroma subsampling : 4:2:0
Bit depth : 8 bits
Scan type : Progressive
Bits/(Pixel*Frame) : 0.113
Stream size : 120 MiB (79%)
Title : tvp-youngsheldon-s01e01rp-480p
Writing library : x264 core 152 r2851 ba24899
Encoding settings : cabac=1 / ref=5 / deblock=1:-2:-2 / analyse=0x3:0x113 / me=umh / subme=8 / psy=1 / psy_rd=1.00:0.00 / mixed_ref=1 / me_range=16 / chroma_me=1 / trellis=1 / 8x8dct=1 / cqm=0 / deadzone=21,11 / fast_pskip=1 / chroma_qp_offset=-2 / threads=12 / lookahead_threads=2 / sliced_threads=0 / nr=0 / decimate=1 / interlaced=0 / bluray_compat=0 / constrained_intra=0 / bframes=3 / b_pyramid=2 / b_adapt=2 / b_bias=0 / direct=3 / weightb=1 / open_gop=0 / weightp=2 / keyint=240 / keyint_min=23 / scenecut=40 / intra_refresh=0 / rc_lookahead=50 / rc=crf / mbtree=1 / crf=19.0 / qcomp=0.60 / qpmin=0 / qpmax=69 / qpstep=4 / vbv_maxrate=14000 / vbv_bufsize=14000 / crf_max=0.0 / nal_hrd=none / filler=0 / ip_ratio=1.40 / aq=1:1.00
Language : German
Default : Yes
Forced : Yes

Audio
ID : 2
Format : AC-3
Format/Info : Audio Coding 3
Format settings, Endianness : Big
Codec ID : A_AC3
Duration : 20 min 26 s
Bit rate mode : Constant
Bit rate : 192 kb/s
Channel(s) : 2 channels
Channel positions : Front: L R
Sampling rate : 48.0 kHz
Frame rate : 31.250 FPS (1536 SPF)
Bit depth : 16 bits
Compression mode : Lossy
Stream size : 28.1 MiB (19%)
Language : German
Service kind : Complete Main
Default : Yes
Forced : Yes





Young Sheldon S01E01


Young Sheldon S01E01


Young Sheldon S01E01


Young Sheldon S01E01


Young Sheldon S01E01

All episodes