Featured TV Shows


Young Sheldon S02E02

Posted By: Tavaz
SD / WEBRip IMDb
Young Sheldon S02E02

Young Sheldon S02E02
WEBRip | MKV | 720x404 | German | H264 @ 775 kbps | AC-3 @ 384 kbps | 18 min 32 s | 154 MiB
Genre: Komödie

Spin-off zum Sitcom-Hit „The Big Bang Theory“ über die Kindheit des genial-neurotischen Physikers Dr. Sheldon Cooper. Der neunjährige, hochintelligente Jungen Sheldon, wächst wohlbehütet bei seiner äußerst konservativen und christlichen Familie in Texas auf. Mit seiner Wissenschaftsbegeisterung und seiner Besserwisserei stößt er bei seiner Familie, seinen Mitschülern und Lehrern an der Highschool und bei anderen Texanern regelmäßig auf Unverständnis und Ablehnung.

S02E2 Ein.Kuehlschrank.viele.Zeitungen.und.Stuetzraeder.mkv (154.0 MB)



General
Unique ID : 160488491251449452042253190108464657633 (0x78BCF587C75D2E481BB8BBBE0D95B4E1)
Complete name : ./YoSh S02E02 German/S02E2 Ein.Kuehlschrank.viele.Zeitungen.und.Stuetzraeder.mkv
Format : Matroska
Format version : Version 4 / Version 2
File size : 154 MiB
Duration : 18 min 32 s
Overall bit rate : 1 161 kb/s
Movie name : Young.Sheldon.S02E02.GERMAN.DUBBED.WEBRiP.x264-idTV
Encoded date : UTC 2019-01-07 18:39:40
Writing application : mkvmerge v19.0.0 ('Brave Captain') 64-bit
Writing library : libebml v1.3.5 + libmatroska v1.4.8

Video
ID : 1
Format : AVC
Format/Info : Advanced Video Codec
Format profile : High@L3.1
Format settings : CABAC / 5 Ref Frames
Format settings, CABAC : Yes
Format settings, RefFrames : 5 frames
Codec ID : V_MPEG4/ISO/AVC
Duration : 18 min 32 s
Bit rate : 775 kb/s
Width : 720 pixels
Height : 404 pixels
Display aspect ratio : 16:9
Frame rate mode : Constant
Frame rate : 25.000 FPS
Original frame rate : 23.976 (24000/1001) FPS
Color space : YUV
Chroma subsampling : 4:2:0
Bit depth : 8 bits
Scan type : Progressive
Bits/(Pixel*Frame) : 0.107
Stream size : 103 MiB (67%)
Writing library : x264 core 157 r2935M idTV
Encoding settings : cabac=1 / ref=5 / deblock=1:-2:-2 / analyse=0x3:0x133 / me=umh / subme=8 / psy=1 / psy_rd=1.00:0.00 / mixed_ref=1 / me_range=16 / chroma_me=1 / trellis=2 / 8x8dct=1 / cqm=0 / deadzone=21,11 / fast_pskip=0 / chroma_qp_offset=-2 / threads=12 / lookahead_threads=2 / sliced_threads=0 / nr=0 / decimate=1 / interlaced=0 / bluray_compat=0 / constrained_intra=0 / bframes=3 / b_pyramid=2 / b_adapt=1 / b_bias=0 / direct=3 / weightb=1 / open_gop=0 / weightp=2 / keyint=250 / keyint_min=23 / scenecut=40 / intra_refresh=0 / rc_lookahead=50 / rc=crf / mbtree=1 / crf=19.0 / qcomp=0.60 / qpmin=10 / qpmax=51 / qpstep=4 / ip_ratio=1.40 / aq=1:1.00
Language : English
Default : Yes
Forced : No
Color range : Limited
Color primaries : BT.709
Transfer characteristics : BT.709
Matrix coefficients : BT.709

Audio
ID : 2
Format : AC-3
Format/Info : Audio Coding 3
Format settings, Endianness : Big
Codec ID : A_AC3
Duration : 18 min 32 s
Bit rate mode : Constant
Bit rate : 384 kb/s
Channel(s) : 6 channels
Channel positions : Front: L C R, Side: L R, LFE
Sampling rate : 48.0 kHz
Frame rate : 31.250 FPS (1536 SPF)
Bit depth : 16 bits
Compression mode : Lossy
Stream size : 50.9 MiB (33%)
Language : German
Service kind : Complete Main
Default : Yes
Forced : Yes





Young Sheldon S02E02


Young Sheldon S02E02


Young Sheldon S02E02


Young Sheldon S02E02


Young Sheldon S02E02

All episodes