Young Sheldon S02E10

Posted By: Tavaz
720p (HD) / HDTV IMDb
Young Sheldon S02E10

Young Sheldon S02E10
HDTV | MKV | 1280x716 | English | H264 @ 2545 kbps | AC-3 @ 384 kbps | 18 min 56 s | 397 MiB
Genre: Comedy

The early life of child genius Sheldon Cooper, later seen in The Big Bang Theory.

e80f72b3f5b148099e353bfb2953261c.mkv (397.0 MB)



General
Unique ID : 204284312427020367324774861122067070660 (0x99AFBA39FA64CA85297BD39D59017EC4)
Complete name : ./e80f72b3f5b148099e353bfb2953261c.mkv
Format : Matroska
Format version : Version 4 / Version 2
File size : 397 MiB
Duration : 18 min 56 s
Overall bit rate : 2 931 kb/s
Encoded date : UTC 2018-12-07 02:15:25
Writing application : mkvmerge v8.8.0 ('Wind at my back') 64bit
Writing library : libebml v1.3.3 + libmatroska v1.4.4

Video
ID : 1
Format : AVC
Format/Info : Advanced Video Codec
Format profile : High@L4.1
Format settings : CABAC / 5 Ref Frames
Format settings, CABAC : Yes
Format settings, RefFrames : 5 frames
Codec ID : V_MPEG4/ISO/AVC
Duration : 18 min 56 s
Bit rate : 2 545 kb/s
Width : 1 280 pixels
Height : 716 pixels
Display aspect ratio : 16:9
Frame rate mode : Constant
Frame rate : 23.976 (24000/1001) FPS
Color space : YUV
Chroma subsampling : 4:2:0
Bit depth : 8 bits
Scan type : Progressive
Bits/(Pixel*Frame) : 0.116
Stream size : 345 MiB (87%)
Writing library : x264 core 157 r2935 545de2f
Encoding settings : cabac=1 / ref=5 / deblock=1:0:0 / analyse=0x3:0x113 / me=hex / subme=8 / psy=1 / psy_rd=1.00:0.00 / mixed_ref=1 / me_range=16 / chroma_me=1 / trellis=2 / 8x8dct=1 / cqm=0 / deadzone=21,11 / fast_pskip=1 / chroma_qp_offset=-2 / threads=64 / lookahead_threads=5 / sliced_threads=0 / nr=0 / decimate=1 / interlaced=0 / bluray_compat=0 / constrained_intra=0 / bframes=3 / b_pyramid=2 / b_adapt=1 / b_bias=0 / direct=3 / weightb=1 / open_gop=0 / weightp=2 / keyint=250 / keyint_min=23 / scenecut=40 / intra_refresh=0 / rc_lookahead=50 / rc=crf / mbtree=1 / crf=18.0 / qcomp=0.60 / qpmin=0 / qpmax=69 / qpstep=4 / ip_ratio=1.40 / aq=1:1.00
Default : Yes
Forced : No
Color range : Limited
Matrix coefficients : BT.709

Audio
ID : 2
Format : AC-3
Format/Info : Audio Coding 3
Format settings, Endianness : Big
Codec ID : A_AC3
Duration : 18 min 56 s
Bit rate mode : Constant
Bit rate : 384 kb/s
Channel(s) : 6 channels
Channel positions : Front: L C R, Side: L R, LFE
Sampling rate : 48.0 kHz
Frame rate : 31.250 FPS (1536 SPF)
Bit depth : 16 bits
Compression mode : Lossy
Stream size : 52.0 MiB (13%)
Service kind : Complete Main
Default : Yes
Forced : No





Young Sheldon S02E10


Young Sheldon S02E10


Young Sheldon S02E10


Young Sheldon S02E10


Young Sheldon S02E10

All episodes