Index
# A B C D E F G H I J K L M N O P Q R S T U V W Y Z
Tags
Language
Tags

Featured TV Shows


Young Sheldon S02E12

Posted By: Tavaz
1080p (FullHD) / HDTV IMDb
Young Sheldon S02E12

Young Sheldon S02E12
HDTV | MKV | 1920x1080 | French / English | H264 @ 8277 kbps | E-AC-3 @ 192 kbps | 17 min 35 s | 1.06 GiB
Subtitles: French
Genre: Comedy


The early life of child genius Sheldon Cooper, later seen in The Big Bang Theory.

5fcceacd82854e92ad63beee83d42b15.mkv (1.1 GB)



General
Unique ID : 37165037830531579791458890359348080761 (0x1BF5B9D62B478F15103DBDF4D8A73079)
Complete name : ./5fcceacd82854e92ad63beee83d42b15.mkv
Format : Matroska
Format version : Version 4 / Version 2
File size : 1.06 GiB
Duration : 17 min 35 s
Overall bit rate : 8 665 kb/s
Encoded date : UTC 2019-08-19 16:41:18
Writing application : mkvmerge v34.0.0 ('Sight and Seen') 64-bit
Writing library : libebml v1.3.7 + libmatroska v1.5.0

Video
ID : 1
Format : AVC
Format/Info : Advanced Video Codec
Format profile : High@L4
Format settings : CABAC / 4 Ref Frames
Format settings, CABAC : Yes
Format settings, RefFrames : 4 frames
Format settings, GOP : M=4, N=24
Codec ID : V_MPEG4/ISO/AVC
Duration : 17 min 35 s
Bit rate : 8 277 kb/s
Width : 1 920 pixels
Height : 1 080 pixels
Display aspect ratio : 16:9
Frame rate mode : Variable
Frame rate : 50.000 FPS
Original frame rate : 25.000 FPS
Standard : Component
Color space : YUV
Chroma subsampling : 4:2:0
Bit depth : 8 bits
Scan type : Interlaced
Scan type, store method : Separated fields
Scan order : Top Field First
Bits/(Pixel*Frame) : 0.080
Stream size : 1.02 GiB (96%)
Title : Young Sheldon S02E12
Language : French
Default : Yes
Forced : No
Color range : Limited
Color primaries : BT.709
Transfer characteristics : BT.709
Matrix coefficients : BT.709

Audio #1
ID : 2
Format : E-AC-3
Format/Info : Enhanced Audio Coding 3
Format settings, Endianness : Big
Codec ID : A_EAC3
Duration : 17 min 35 s
Bit rate mode : Constant
Bit rate : 192 kb/s
Channel(s) : 2 channels
Channel positions : Front: L R
Sampling rate : 48.0 kHz
Frame rate : 187.500 FPS (256 SPF)
Compression mode : Lossy
Stream size : 24.2 MiB (2%)
Title : Français E-AC3 2.0
Language : French
Service kind : Complete Main
Default : Yes
Forced : No

Audio #2
ID : 3
Format : E-AC-3
Format/Info : Enhanced Audio Coding 3
Format settings, Endianness : Big
Codec ID : A_EAC3
Duration : 17 min 35 s
Bit rate mode : Constant
Bit rate : 192 kb/s
Channel(s) : 2 channels
Channel positions : Front: L R
Sampling rate : 48.0 kHz
Frame rate : 187.500 FPS (256 SPF)
Compression mode : Lossy
Stream size : 24.2 MiB (2%)
Title : Anglais E-AC3 2.0
Language : English
Service kind : Complete Main
Default : No
Forced : No

Text
ID : 5
Format : UTF-8
Codec ID : S_TEXT/UTF8
Codec ID/Info : UTF-8 Plain Text
Duration : 17 min 12 s
Bit rate : 77 b/s
Count of elements : 324
Stream size : 9.75 KiB (0%)
Title : Français
Language : French
Default : No
Forced : No





Young Sheldon S02E12


Young Sheldon S02E12


Young Sheldon S02E12


Young Sheldon S02E12


Young Sheldon S02E12

All episodes