Index
# A B C D E F G H I J K L M N O P Q R S T U V W Y Z
Tags
Language
Tags

Featured TV Shows


Young Sheldon S02E15

Posted By: Tavaz
720p (HD) / WEBRip IMDb
Young Sheldon S02E15

Young Sheldon S02E15
WEBRip | MKV | 1280x720 | French / English | H264 @ 3400 kbps | AAC @ 128 kbps | 18 min 54 s | 481 MiB
Subtitles: French
Genre: Comedy


The early life of child genius Sheldon Cooper, later seen in The Big Bang Theory.

84350f1a617f46189a4c41ea48f9aa74.mkv (481.3 MB)



General
Unique ID : 192898575650936183067300345644953276995 (0x911EEA100FBBF0E95C43F9F040D29243)
Complete name : ./84350f1a617f46189a4c41ea48f9aa74.mkv
Format : Matroska
Format version : Version 4 / Version 2
File size : 481 MiB
Duration : 18 min 54 s
Overall bit rate : 3 560 kb/s
Encoded date : UTC 2019-08-12 17:24:12
Writing application : mkvmerge v36.0.0 ('Is That Jazz?') 64-bit
Writing library : libebml v1.3.9 + libmatroska v1.5.2

Video
ID : 1
Format : AVC
Format/Info : Advanced Video Codec
Format profile : High@L3.1
Format settings : CABAC / 2 Ref Frames
Format settings, CABAC : Yes
Format settings, RefFrames : 2 frames
Format settings, GOP : M=1, N=50
Codec ID : V_MPEG4/ISO/AVC
Duration : 18 min 54 s
Bit rate mode : Constant
Bit rate : 3 400 kb/s
Width : 1 280 pixels
Height : 720 pixels
Display aspect ratio : 16:9
Frame rate mode : Constant
Frame rate : 25.000 FPS
Color space : YUV
Chroma subsampling : 4:2:0
Bit depth : 8 bits
Scan type : Progressive
Bits/(Pixel*Frame) : 0.148
Stream size : 446 MiB (93%)
Default : Yes
Forced : No
Color range : Limited
Color primaries : BT.709
Transfer characteristics : BT.709
Matrix coefficients : BT.709

Audio #1
ID : 2
Format : AAC
Format/Info : Advanced Audio Codec
Format profile : LC
Codec ID : A_AAC-2
Duration : 18 min 54 s
Bit rate : 128 kb/s
Channel(s) : 2 channels
Channel positions : Front: L R
Sampling rate : 48.0 kHz
Frame rate : 46.875 FPS (1024 SPF)
Compression mode : Lossy
Stream size : 17.3 MiB (4%)
Title : French
Language : French
Default : Yes
Forced : No

Audio #2
ID : 3
Format : AAC
Format/Info : Advanced Audio Codec
Format profile : LC
Codec ID : A_AAC-2
Duration : 18 min 54 s
Bit rate : 128 kb/s
Channel(s) : 2 channels
Channel positions : Front: L R
Sampling rate : 48.0 kHz
Frame rate : 46.875 FPS (1024 SPF)
Compression mode : Lossy
Stream size : 17.3 MiB (4%)
Title : English
Language : English
Default : No
Forced : No

Text
ID : 4
Format : UTF-8
Codec ID : S_TEXT/UTF8
Codec ID/Info : UTF-8 Plain Text
Duration : 18 min 28 s
Bit rate : 83 b/s
Count of elements : 332
Stream size : 11.2 KiB (0%)
Title : French
Language : French
Default : No
Forced : No





Young Sheldon S02E15


Young Sheldon S02E15


Young Sheldon S02E15


Young Sheldon S02E15


Young Sheldon S02E15

All episodes