Index
# A B C D E F G H I J K L M N O P Q R S T U V W Y Z
Tags
Language
Tags

Featured TV Shows


Young Sheldon S02E18

Posted By: Tavaz
1080p (FullHD) / HDTV IMDb
Young Sheldon S02E18

Young Sheldon S02E18
HDTV | MKV | 1920x1080 | French / English | H264 @ 3825 kbps | AC-3 @ 192 kbps | 17 min 38 s | 531 MiB
Subtitles: French
Genre: Comedy


The early life of child genius Sheldon Cooper, later seen in The Big Bang Theory.

5e1a88a020354e28a5872513ebc4bb5b.mkv (531.4 MB)



General
Unique ID : 155659805769339993813788802440142264887 (0x751AFCF49257F7A5DB43095D58D81A37)
Complete name : ./5e1a88a020354e28a5872513ebc4bb5b.mkv
Format : Matroska
Format version : Version 4 / Version 2
File size : 531 MiB
Duration : 17 min 38 s
Overall bit rate : 4 212 kb/s
Encoded date : UTC 2019-09-01 16:00:35
Writing application : mkvmerge v36.0.0 ('Is That Jazz?') 32-bit
Writing library : libebml v1.3.9 + libmatroska v1.5.2

Video
ID : 1
Format : AVC
Format/Info : Advanced Video Codec
Format profile : High@L4
Format settings : CABAC / 4 Ref Frames
Format settings, CABAC : Yes
Format settings, RefFrames : 4 frames
Codec ID : V_MPEG4/ISO/AVC
Duration : 17 min 38 s
Bit rate : 3 825 kb/s
Width : 1 920 pixels
Height : 1 080 pixels
Display aspect ratio : 16:9
Frame rate mode : Constant
Frame rate : 25.000 FPS
Standard : Component
Color space : YUV
Chroma subsampling : 4:2:0
Bit depth : 8 bits
Scan type : MBAFF
Bits/(Pixel*Frame) : 0.074
Stream size : 483 MiB (91%)
Title : Young Sheldon S02E18
Language : French
Default : Yes
Forced : No
Color range : Limited
Color primaries : BT.709
Transfer characteristics : BT.709
Matrix coefficients : BT.709

Audio #1
ID : 2
Format : AC-3
Format/Info : Audio Coding 3
Format settings, Endianness : Big
Codec ID : A_AC3
Duration : 17 min 38 s
Bit rate mode : Constant
Bit rate : 192 kb/s
Channel(s) : 2 channels
Channel positions : Front: L R
Sampling rate : 48.0 kHz
Frame rate : 31.250 FPS (1536 SPF)
Bit depth : 16 bits
Compression mode : Lossy
Stream size : 24.2 MiB (5%)
Title : Français AC3 2.0
Language : French
Service kind : Complete Main
Default : Yes
Forced : No

Audio #2
ID : 3
Format : AC-3
Format/Info : Audio Coding 3
Format settings, Endianness : Big
Codec ID : A_AC3
Duration : 17 min 38 s
Bit rate mode : Constant
Bit rate : 192 kb/s
Channel(s) : 2 channels
Channel positions : Front: L R
Sampling rate : 48.0 kHz
Frame rate : 31.250 FPS (1536 SPF)
Bit depth : 16 bits
Compression mode : Lossy
Stream size : 24.2 MiB (5%)
Title : Anglais AC3 2.0
Language : English
Service kind : Complete Main
Default : No
Forced : No

Text
ID : 5
Format : UTF-8
Codec ID : S_TEXT/UTF8
Codec ID/Info : UTF-8 Plain Text
Duration : 17 min 14 s
Bit rate : 79 b/s
Count of elements : 341
Stream size : 10.1 KiB (0%)
Title : Français
Language : French
Default : No
Forced : No





Young Sheldon S02E18


Young Sheldon S02E18


Young Sheldon S02E18


Young Sheldon S02E18


Young Sheldon S02E18

All episodes