Index
# A B C D E F G H I J K L M N O P Q R S T U V W Y Z
Tags
Language
Tags

Featured TV Shows


Young Sheldon S02E19

Posted By: Tavaz
1080p (FullHD) / HDTV IMDb
Young Sheldon S02E19

Young Sheldon S02E19
HDTV | MKV | 1920x1080 | French / English | H264 @ 3972 kbps | AC-3 @ 192 kbps | 19 min 14 s | 600 MiB
Subtitles: French
Genre: Comedy


The early life of child genius Sheldon Cooper, later seen in The Big Bang Theory.

bec173776bb843308508575c87d03216.mkv (599.8 MB)



General
Unique ID : 72106199175151314714786841639684322360 (0x363F2618DA8C488B11C40B99A806B438)
Complete name : ./bec173776bb843308508575c87d03216.mkv
Format : Matroska
Format version : Version 4 / Version 2
File size : 600 MiB
Duration : 19 min 14 s
Overall bit rate : 4 358 kb/s
Encoded date : UTC 2019-09-01 16:00:42
Writing application : mkvmerge v36.0.0 ('Is That Jazz?') 32-bit
Writing library : libebml v1.3.9 + libmatroska v1.5.2

Video
ID : 1
Format : AVC
Format/Info : Advanced Video Codec
Format profile : High@L4
Format settings : CABAC / 4 Ref Frames
Format settings, CABAC : Yes
Format settings, RefFrames : 4 frames
Codec ID : V_MPEG4/ISO/AVC
Duration : 19 min 14 s
Bit rate : 3 972 kb/s
Width : 1 920 pixels
Height : 1 080 pixels
Display aspect ratio : 16:9
Frame rate mode : Constant
Frame rate : 25.000 FPS
Standard : Component
Color space : YUV
Chroma subsampling : 4:2:0
Bit depth : 8 bits
Scan type : MBAFF
Bits/(Pixel*Frame) : 0.077
Stream size : 547 MiB (91%)
Title : Young Sheldon S02E19
Language : French
Default : Yes
Forced : No
Color range : Limited
Color primaries : BT.709
Transfer characteristics : BT.709
Matrix coefficients : BT.709

Audio #1
ID : 2
Format : AC-3
Format/Info : Audio Coding 3
Format settings, Endianness : Big
Codec ID : A_AC3
Duration : 19 min 14 s
Bit rate mode : Constant
Bit rate : 192 kb/s
Channel(s) : 2 channels
Channel positions : Front: L R
Sampling rate : 48.0 kHz
Frame rate : 31.250 FPS (1536 SPF)
Bit depth : 16 bits
Compression mode : Lossy
Stream size : 26.4 MiB (4%)
Title : Français AC3 2.0
Language : French
Service kind : Complete Main
Default : Yes
Forced : No

Audio #2
ID : 3
Format : AC-3
Format/Info : Audio Coding 3
Format settings, Endianness : Big
Codec ID : A_AC3
Duration : 19 min 14 s
Bit rate mode : Constant
Bit rate : 192 kb/s
Channel(s) : 2 channels
Channel positions : Front: L R
Sampling rate : 48.0 kHz
Frame rate : 31.250 FPS (1536 SPF)
Bit depth : 16 bits
Compression mode : Lossy
Stream size : 26.4 MiB (4%)
Title : Anglais AC3 2.0
Language : English
Service kind : Complete Main
Default : No
Forced : No

Text
ID : 5
Format : UTF-8
Codec ID : S_TEXT/UTF8
Codec ID/Info : UTF-8 Plain Text
Duration : 18 min 50 s
Bit rate : 82 b/s
Count of elements : 361
Stream size : 11.4 KiB (0%)
Title : Français
Language : French
Default : No
Forced : No





Young Sheldon S02E19


Young Sheldon S02E19


Young Sheldon S02E19


Young Sheldon S02E19


Young Sheldon S02E19

All episodes