Featured TV Shows


Young Sheldon S02E20

Posted By: Tavaz
1080p (FullHD) / WEBRip IMDb
Young Sheldon S02E20

Young Sheldon S02E20
WEBRip | MKV | 1920x1080 | Italian / English | H264 @ 5200 kbps | AAC @ 63 kbps | 19 min 53 s | 751 MiB
Subtitles: English, Italian
Genre: Commedia


Sheldon Cooper, un giovane genio del Texas orientale, all'età di nove anni si trova a frequentare il liceo. La sua infanzia trascorre in una famiglia in cui si trova poco a suo agio, tra una madre fervente cristiana rinata, un padre alcolizzato e i due fratelli che non perdono occasione di prenderlo in giro o renderlo vittima dei loro scherzi.

young.sheldon.s02e20.italian.multi.1080p.web.x264-hwd.sample.mkv (38.5 MB)
Young.Sheldon.S02E20.iTALiAN.MULTi.1080p.WEB.x264-HWD.mkv (751.3 MB)



General
Unique ID : 178015806779975354793578252430826397305 (0x85EC98E7AE7D6E587021503EAEEDDE79)
Complete name : ./Young.Sheldon.S02E20.iTALiAN.MULTi.1080p.WEB.x264-HWD.mkv
Format : Matroska
Format version : Version 4 / Version 2
File size : 751 MiB
Duration : 19 min 53 s
Overall bit rate : 5 282 kb/s
Encoded date : UTC 2019-07-05 22:36:57
Writing application : mkvmerge v28.2.0 ('The Awakening') 64-bit
Writing library : libebml v1.3.6 + libmatroska v1.4.9

Video
ID : 1
Format : AVC
Format/Info : Advanced Video Codec
Format profile : High@L4
Format settings : CABAC / 4 Ref Frames
Format settings, CABAC : Yes
Format settings, RefFrames : 4 frames
Codec ID : V_MPEG4/ISO/AVC
Duration : 19 min 52 s
Bit rate : 5 200 kb/s
Width : 1 920 pixels
Height : 1 080 pixels
Display aspect ratio : 16:9
Frame rate mode : Constant
Frame rate : 25.000 FPS
Color space : YUV
Chroma subsampling : 4:2:0
Bit depth : 8 bits
Scan type : Progressive
Bits/(Pixel*Frame) : 0.100
Stream size : 733 MiB (98%)
Writing library : x264 core 142
Encoding settings : cabac=1 / ref=3 / deblock=1:0:0 / analyse=0x3:0x113 / me=hex / subme=7 / psy=1 / psy_rd=1.00:0.00 / mixed_ref=1 / me_range=16 / chroma_me=1 / trellis=1 / 8x8dct=1 / cqm=0 / deadzone=21,11 / fast_pskip=1 / chroma_qp_offset=-2 / threads=4 / lookahead_threads=1 / sliced_threads=0 / nr=0 / decimate=1 / interlaced=0 / bluray_compat=0 / constrained_intra=0 / bframes=3 / b_pyramid=2 / b_adapt=1 / b_bias=0 / direct=1 / weightb=1 / open_gop=0 / weightp=2 / keyint=25 / keyint_min=2 / scenecut=0 / intra_refresh=0 / rc_lookahead=25 / rc=abr / mbtree=1 / bitrate=5200 / ratetol=1.0 / qcomp=0.60 / qpmin=0 / qpmax=69 / qpstep=4 / vbv_maxrate=5720 / vbv_bufsize=5200 / nal_hrd=none / filler=0 / ip_ratio=1.40 / aq=1:1.00
Default : Yes
Forced : No

Audio #1
ID : 2
Format : AAC
Format/Info : Advanced Audio Codec
Format profile : HE-AAC / LC
Format settings : Explicit
Codec ID : A_AAC-2
Duration : 19 min 53 s
Bit rate : 64.0 kb/s
Channel(s) : 2 channels
Channel positions : Front: L R
Sampling rate : 48.0 kHz / 24.0 kHz
Frame rate : 23.438 FPS (1024 SPF)
Compression mode : Lossy
Stream size : 9.10 MiB (1%)
Title : Italian
Language : Italian
Default : Yes
Forced : No

Audio #2
ID : 3
Format : AAC
Format/Info : Advanced Audio Codec
Format profile : HE-AAC / LC
Format settings : Explicit
Codec ID : A_AAC-2
Duration : 19 min 53 s
Bit rate : 64.0 kb/s
Channel(s) : 2 channels
Channel positions : Front: L R
Sampling rate : 48.0 kHz / 24.0 kHz
Frame rate : 23.438 FPS (1024 SPF)
Compression mode : Lossy
Stream size : 9.10 MiB (1%)
Title : English
Language : English
Default : No
Forced : No

Text #1
ID : 4
Format : UTF-8
Codec ID : S_TEXT/UTF8
Codec ID/Info : UTF-8 Plain Text
Duration : 19 min 25 s
Bit rate : 84 b/s
Count of elements : 411
Stream size : 12.0 KiB (0%)
Title : Italian
Language : Italian
Default : No
Forced : No

Text #2
ID : 5
Format : UTF-8
Codec ID : S_TEXT/UTF8
Codec ID/Info : UTF-8 Plain Text
Duration : 19 min 24 s
Bit rate : 84 b/s
Count of elements : 413
Stream size : 12.1 KiB (0%)
Title : English
Language : English
Default : No
Forced : No





Young Sheldon S02E20


Young Sheldon S02E20


Young Sheldon S02E20


Young Sheldon S02E20


Young Sheldon S02E20

All episodes