Featured TV Shows


Young Sheldon S02E22

Posted By: Tavaz
1080p (FullHD) / WEB-DL IMDb
Young Sheldon S02E22

Young Sheldon S02E22
WEB-DL | MKV | 1920x1080 | English | H264 @ 9191 kbps | E-AC-3 @ 640 kbps | 19 min 41 s | 1.35 GiB
Subtitles: English
Genre: Comedy


The early life of child genius Sheldon Cooper, later seen in The Big Bang Theory.

91990376345c46299387a7487a50204a.mkv (1.4 GB)



General
Unique ID : 334893561924993156422771179552719671972 (0xFBF227669AFD2525B120111C5B3E92A4)
Complete name : ./91990376345c46299387a7487a50204a.mkv
Format : Matroska
Format version : Version 4 / Version 2
File size : 1.35 GiB
Duration : 19 min 41 s
Overall bit rate : 9 833 kb/s
Encoded date : UTC 2019-05-19 21:37:53
Writing application : mkvmerge v34.0.0 ('Sight and Seen') 64-bit
Writing library : libebml v1.3.7 + libmatroska v1.5.0

Video
ID : 1
Format : AVC
Format/Info : Advanced Video Codec
Format profile : High@L4
Format settings : CABAC / 4 Ref Frames
Format settings, CABAC : Yes
Format settings, RefFrames : 4 frames
Codec ID : V_MPEG4/ISO/AVC
Duration : 19 min 41 s
Bit rate : 9 192 kb/s
Width : 1 920 pixels
Height : 1 080 pixels
Display aspect ratio : 16:9
Frame rate mode : Constant
Frame rate : 24.000 FPS
Color space : YUV
Chroma subsampling : 4:2:0
Bit depth : 8 bits
Scan type : Progressive
Bits/(Pixel*Frame) : 0.185
Stream size : 1.26 GiB (93%)
Default : Yes
Forced : No
Color range : Limited
Color primaries : BT.709
Transfer characteristics : BT.709
Matrix coefficients : BT.709

Audio
ID : 2
Format : E-AC-3
Format/Info : Enhanced Audio Coding 3
Format settings, Endianness : Big
Codec ID : A_EAC3
Duration : 19 min 41 s
Bit rate mode : Constant
Bit rate : 640 kb/s
Channel(s) : 6 channels
Channel positions : Front: L C R, Side: L R, LFE
Sampling rate : 48.0 kHz
Frame rate : 187.500 FPS (256 SPF)
Compression mode : Lossy
Stream size : 90.1 MiB (7%)
Language : English
Service kind : Complete Main
Default : Yes
Forced : No

Text
ID : 3
Format : UTF-8
Codec ID : S_TEXT/UTF8
Codec ID/Info : UTF-8 Plain Text
Duration : 19 min 15 s
Bit rate : 84 b/s
Count of elements : 372
Stream size : 11.9 KiB (0%)
Title : SDH
Language : English
Default : No
Forced : No





Young Sheldon S02E22


Young Sheldon S02E22


Young Sheldon S02E22


Young Sheldon S02E22


Young Sheldon S02E22

All episodes