Featured TV Shows


Young Sheldon S02E22

Posted By: Tavaz
720p (HD) / WEB-DL IMDb
Young Sheldon S02E22

Young Sheldon S02E22
WEB-DL | MKV | 1280x720 | English | H264 @ 3024 kbps | E-AC-3 @ 640 kbps | 19 min 41 s | 516 MiB
Subtitles: English
Genre: Komedi


The early life of child genius Sheldon Cooper, later seen in The Big Bang Theory.

7ae4cc3a220241e8a8d9b08e7a8dc763.mkv (516.3 MB)



General
Unique ID : 312747535788703909605658709518372246144 (0xEB48FC0301B60B907BBD353C39331280)
Complete name : ./7ae4cc3a220241e8a8d9b08e7a8dc763.mkv
Format : Matroska
Format version : Version 4 / Version 2
File size : 516 MiB
Duration : 19 min 41 s
Overall bit rate : 3 666 kb/s
Encoded date : UTC 2019-05-19 21:38:41
Writing application : mkvmerge v34.0.0 ('Sight and Seen') 64-bit
Writing library : libebml v1.3.7 + libmatroska v1.5.0

Video
ID : 1
Format : AVC
Format/Info : Advanced Video Codec
Format profile : High@L3.1
Format settings : CABAC / 5 Ref Frames
Format settings, CABAC : Yes
Format settings, RefFrames : 5 frames
Codec ID : V_MPEG4/ISO/AVC
Duration : 19 min 41 s
Bit rate : 3 024 kb/s
Width : 1 280 pixels
Height : 720 pixels
Display aspect ratio : 16:9
Frame rate mode : Constant
Frame rate : 24.000 FPS
Color space : YUV
Chroma subsampling : 4:2:0
Bit depth : 8 bits
Scan type : Progressive
Bits/(Pixel*Frame) : 0.137
Stream size : 426 MiB (82%)
Default : Yes
Forced : No
Color range : Limited
Color primaries : BT.709
Transfer characteristics : BT.709
Matrix coefficients : BT.709

Audio
ID : 2
Format : E-AC-3
Format/Info : Enhanced Audio Coding 3
Format settings, Endianness : Big
Codec ID : A_EAC3
Duration : 19 min 41 s
Bit rate mode : Constant
Bit rate : 640 kb/s
Channel(s) : 6 channels
Channel positions : Front: L C R, Side: L R, LFE
Sampling rate : 48.0 kHz
Frame rate : 187.500 FPS (256 SPF)
Compression mode : Lossy
Stream size : 90.1 MiB (17%)
Language : English
Service kind : Complete Main
Default : Yes
Forced : No

Text
ID : 3
Format : UTF-8
Codec ID : S_TEXT/UTF8
Codec ID/Info : UTF-8 Plain Text
Duration : 19 min 15 s
Bit rate : 84 b/s
Count of elements : 372
Stream size : 11.9 KiB (0%)
Title : SDH
Language : English
Default : No
Forced : No





Young Sheldon S02E22


Young Sheldon S02E22


Young Sheldon S02E22


Young Sheldon S02E22


Young Sheldon S02E22

All episodes