Index
# A B C D E F G H I J K L M N O P Q R S T U V W Y Z
Tags
Language
Tags

Featured TV Shows


Young Sheldon S03E06

Posted By: Tavaz
1080p (FullHD) / WEB-DL IMDb
Young Sheldon S03E06

Young Sheldon S03E06
WEB-DL | MKV | 1920x1080 | English | H264 @ 9412 kbps | E-AC-3 @ 640 kbps | 18 min 37 s | 1.31 GiB
Subtitles: English
Genre: Comedy


The early life of child genius Sheldon Cooper, later seen in The Big Bang Theory.

bfdfb4d5381b4093a4c0b63330c5d584.mkv (1.3 GB)



General
Unique ID : 233418421907180736479625771137754444416 (0xAF9AC0B99D86D0E122ECBF8D74A7B280)
Complete name : ./bfdfb4d5381b4093a4c0b63330c5d584.mkv
Format : Matroska
Format version : Version 4 / Version 2
File size : 1.31 GiB
Duration : 18 min 37 s
Overall bit rate : 10.1 Mb/s
Encoded date : UTC 2019-11-10 13:48:04
Writing application : mkvmerge v19.0.0 ('Brave Captain') 64-bit
Writing library : libebml v1.3.5 + libmatroska v1.4.8

Video
ID : 1
Format : AVC
Format/Info : Advanced Video Codec
Format profile : High@L4
Format settings : CABAC / 4 Ref Frames
Format settings, CABAC : Yes
Format settings, RefFrames : 4 frames
Codec ID : V_MPEG4/ISO/AVC
Duration : 18 min 37 s
Bit rate mode : Constant
Bit rate : 9 412 kb/s
Nominal bit rate : 10 000 kb/s
Width : 1 920 pixels
Height : 1 080 pixels
Display aspect ratio : 16:9
Frame rate mode : Constant
Frame rate : 24.000 FPS
Color space : YUV
Chroma subsampling : 4:2:0
Bit depth : 8 bits
Scan type : Progressive
Bits/(Pixel*Frame) : 0.189
Stream size : 1.22 GiB (94%)
Default : Yes
Forced : No
Color range : Limited
Color primaries : BT.709
Transfer characteristics : BT.709
Matrix coefficients : BT.709

Audio
ID : 2
Format : E-AC-3
Format/Info : Enhanced Audio Coding 3
Format settings, Endianness : Big
Codec ID : A_EAC3
Duration : 18 min 37 s
Bit rate mode : Constant
Bit rate : 640 kb/s
Channel(s) : 6 channels
Channel positions : Front: L C R, Side: L R, LFE
Sampling rate : 48.0 kHz
Frame rate : 187.500 FPS (256 SPF)
Compression mode : Lossy
Stream size : 85.2 MiB (6%)
Language : English
Service kind : Complete Main
Default : Yes
Forced : No

Text #1
ID : 3
Format : UTF-8
Codec ID : S_TEXT/UTF8
Codec ID/Info : UTF-8 Plain Text
Duration : 18 min 17 s
Bit rate : 84 b/s
Count of elements : 430
Stream size : 11.3 KiB (0%)
Language : English
Default : No
Forced : No

Text #2
ID : 4
Format : UTF-8
Codec ID : S_TEXT/UTF8
Codec ID/Info : UTF-8 Plain Text
Duration : 18 min 17 s
Bit rate : 87 b/s
Count of elements : 447
Stream size : 11.7 KiB (0%)
Title : SDH
Language : English
Default : No
Forced : No

Menu
00:00:00.000 : en:Studio Logo
00:00:06.000 : en:Previously On
00:00:47.000 : en:Scene 3
00:01:41.000 : en:Title Sequence
00:01:59.000 : en:Scene 5
00:11:55.000 : en:Scene 6
00:17:41.000 : en:Scene 7
00:18:08.000 : en:End Credits





Young Sheldon S03E06


Young Sheldon S03E06


Young Sheldon S03E06


Young Sheldon S03E06


Young Sheldon S03E06

All episodes