Featured TV Shows


Young Sheldon S03E15

Posted By: Tavaz
1080p (FullHD) / WEBRip IMDb
Young Sheldon S03E15

Young Sheldon S03E15
WEBRip | MKV | 1920x1080 | H264 @ 4500 kbps | AC-3 @ 384 kbps | 18 min 34 s | 636 MiB
Genre: Comedy


The early life of child genius Sheldon Cooper, later seen in The Big Bang Theory.

280bb530142546a1b85ecaccd49dc61d.mkv (635.6 MB)



General
Unique ID : 45648297092081929118529076183862932599 (0x22578ACF7426EC0DC489D2D009FCF477)
Complete name : ./280bb530142546a1b85ecaccd49dc61d.mkv
Format : Matroska
Format version : Version 4 / Version 2
File size : 636 MiB
Duration : 18 min 34 s
Overall bit rate : 4 785 kb/s
Encoded date : UTC 2020-02-14 04:32:30
Writing application : mkvmerge v38.0.0 ('The Silent Type') 64-bit
Writing library : libebml v1.3.9 + libmatroska v1.5.2

Video
ID : 1
Format : AVC
Format/Info : Advanced Video Codec
Format profile : High@L4
Format settings : CABAC / 4 Ref Frames
Format settings, CABAC : Yes
Format settings, RefFrames : 4 frames
Codec ID : V_MPEG4/ISO/AVC
Duration : 18 min 34 s
Bit rate : 4 500 kb/s
Width : 1 920 pixels
Height : 1 080 pixels
Display aspect ratio : 16:9
Frame rate mode : Constant
Frame rate : 23.976 (24000/1001) FPS
Color space : YUV
Chroma subsampling : 4:2:0
Bit depth : 8 bits
Scan type : Progressive
Bits/(Pixel*Frame) : 0.091
Stream size : 584 MiB (92%)
Writing library : x264 core 157
Encoding settings : cabac=1 / ref=4 / deblock=1:0:0 / analyse=0x3:0x113 / me=hex / subme=8 / psy=1 / psy_rd=1.00:0.00 / mixed_ref=1 / me_range=16 / chroma_me=1 / trellis=2 / 8x8dct=1 / cqm=0 / deadzone=21,11 / fast_pskip=1 / chroma_qp_offset=-2 / threads=6 / lookahead_threads=1 / sliced_threads=0 / nr=0 / decimate=1 / interlaced=0 / bluray_compat=0 / stitchable=1 / constrained_intra=0 / bframes=3 / b_pyramid=2 / b_adapt=1 / b_bias=0 / direct=3 / weightb=1 / open_gop=0 / weightp=2 / keyint=48 / keyint_min=4 / scenecut=0 / intra_refresh=0 / rc_lookahead=48 / rc=2pass / mbtree=1 / bitrate=4500 / ratetol=1.0 / qcomp=0.60 / qpmin=0 / qpmax=69 / qpstep=4 / cplxblur=20.0 / qblur=0.5 / vbv_maxrate=5400 / vbv_bufsize=4500 / nal_hrd=none / filler=0 / ip_ratio=1.40 / aq=1:1.00
Default : Yes
Forced : No

Audio
ID : 2
Format : AC-3
Format/Info : Audio Coding 3
Format settings, Endianness : Big
Codec ID : A_AC3
Duration : 18 min 34 s
Bit rate mode : Constant
Bit rate : 384 kb/s
Channel(s) : 6 channels
Channel positions : Front: L C R, Side: L R, LFE
Sampling rate : 48.0 kHz
Frame rate : 31.250 FPS (1536 SPF)
Bit depth : 16 bits
Compression mode : Lossy
Stream size : 51.0 MiB (8%)
Service kind : Complete Main
Default : Yes
Forced : No





Young Sheldon S03E15


Young Sheldon S03E15


Young Sheldon S03E15


Young Sheldon S03E15


Young Sheldon S03E15

All episodes