Index
# A B C D E F G H I J K L M N O P Q R S T U V W Y Z
Tags
Language
Tags

Featured TV Shows


Young Sheldon S03E15

Posted By: Tavaz
1080p (FullHD) / WEBRip IMDb
Young Sheldon S03E15

Young Sheldon S03E15
WEBRip | MKV | 1920x1080 | Français / English | H264 @ 4499 kbps | E-AC-3 @ 192 kbps | 17 min 21 s | 607 MiB
Subtitles: Français
Genre: Comedy


The early life of child genius Sheldon Cooper, later seen in The Big Bang Theory.

b18ca13bdfa3431dabf78a4536c705d6.mkv (606.8 MB)



General
Unique ID : 123212467598238599453457154113996764297 (0x5CB1DBAB95C1144C47F1EF9E16B6B489)
Complete name : ./b18ca13bdfa3431dabf78a4536c705d6.mkv
Format : Matroska
Format version : Version 4 / Version 2
File size : 607 MiB
Duration : 17 min 21 s
Overall bit rate : 4 890 kb/s
Encoded date : UTC 2021-06-12 20:26:58
Writing application : mkvmerge v57.0.0 ('Till The End') 64-bit
Writing library : libebml v1.4.2 + libmatroska v1.6.4

Video
ID : 1
Format : AVC
Format/Info : Advanced Video Codec
Format profile : High@L4.2
Format settings : CABAC / 4 Ref Frames
Format settings, CABAC : Yes
Format settings, RefFrames : 4 frames
Codec ID : V_MPEG4/ISO/AVC
Duration : 17 min 21 s
Bit rate mode : Constant
Bit rate : 4 500 kb/s
Width : 1 920 pixels
Height : 1 080 pixels
Display aspect ratio : 16:9
Frame rate mode : Constant
Frame rate : 50.000 FPS
Standard : Component
Color space : YUV
Chroma subsampling : 4:2:0
Bit depth : 8 bits
Scan type : Progressive
Bits/(Pixel*Frame) : 0.043
Stream size : 559 MiB (92%)
Default : No
Forced : No
Color range : Limited
Color primaries : BT.709
Transfer characteristics : BT.709
Matrix coefficients : BT.709

Audio #1
ID : 2
Format : E-AC-3
Format/Info : Enhanced Audio Coding 3
Format settings, Endianness : Big
Codec ID : A_EAC3
Duration : 17 min 20 s
Bit rate mode : Constant
Bit rate : 192 kb/s
Channel(s) : 2 channels
Channel positions : Front: L R
Sampling rate : 48.0 kHz
Frame rate : 187.500 FPS (256 SPF)
Compression mode : Lossy
Stream size : 23.8 MiB (4%)
Title : French
Language : French
Service kind : Complete Main
Default : Yes
Forced : No

Audio #2
ID : 3
Format : E-AC-3
Format/Info : Enhanced Audio Coding 3
Format settings, Endianness : Big
Codec ID : A_EAC3
Duration : 17 min 20 s
Bit rate mode : Constant
Bit rate : 192 kb/s
Channel(s) : 2 channels
Channel positions : Front: L R
Sampling rate : 48.0 kHz
Frame rate : 187.500 FPS (256 SPF)
Compression mode : Lossy
Stream size : 23.8 MiB (4%)
Title : English
Language : English
Service kind : Complete Main
Default : No
Forced : No

Text #1
ID : 4
Format : UTF-8
Codec ID : S_TEXT/UTF8
Codec ID/Info : UTF-8 Plain Text
Duration : 17 min 13 s
Bit rate : 80 b/s
Count of elements : 365
Stream size : 10.1 KiB (0%)
Title : French
Language : French
Default : No
Forced : No

Text #2
ID : 5
Format : UTF-8
Codec ID : S_TEXT/UTF8
Codec ID/Info : UTF-8 Plain Text
Duration : 17 min 13 s
Bit rate : 95 b/s
Count of elements : 377
Stream size : 12.1 KiB (0%)
Title : French (SDH)
Language : French
Default : No
Forced : No





Young Sheldon S03E15


Young Sheldon S03E15


Young Sheldon S03E15


Young Sheldon S03E15


Young Sheldon S03E15

All episodes