Index
# A B C D E F G H I J K L M N O P Q R S T U V W Y Z
Tags
Language
Tags

Featured TV Shows


Young Sheldon S03E18

Posted By: Tavaz
1080p (FullHD) / WEBRip IMDb
Young Sheldon S03E18

Young Sheldon S03E18
WEBRip | MKV | 1920x1080 | Français / English | H264 @ 4499 kbps | E-AC-3 @ 192 kbps | 18 min 30 s | 646 MiB
Subtitles: Français
Genre: Comedy


The early life of child genius Sheldon Cooper, later seen in The Big Bang Theory.

b9ff97db377443108a1c759cc558d15f.mkv (645.8 MB)



General
Unique ID : 246676539753571337959666828504050975844 (0xB9942C67260C6BF77087AEA1314C4464)
Complete name : ./b9ff97db377443108a1c759cc558d15f.mkv
Format : Matroska
Format version : Version 4 / Version 2
File size : 646 MiB
Duration : 18 min 30 s
Overall bit rate : 4 876 kb/s
Encoded date : UTC 2021-06-19 20:27:02
Writing application : mkvmerge v58.0.0 ('Supper's Ready') 64-bit
Writing library : libebml v1.4.2 + libmatroska v1.6.4

Video
ID : 1
Format : AVC
Format/Info : Advanced Video Codec
Format profile : High@L4.2
Format settings : CABAC / 4 Ref Frames
Format settings, CABAC : Yes
Format settings, RefFrames : 4 frames
Codec ID : V_MPEG4/ISO/AVC
Duration : 18 min 30 s
Bit rate mode : Constant
Bit rate : 4 500 kb/s
Width : 1 920 pixels
Height : 1 080 pixels
Display aspect ratio : 16:9
Frame rate mode : Constant
Frame rate : 50.000 FPS
Standard : Component
Color space : YUV
Chroma subsampling : 4:2:0
Bit depth : 8 bits
Scan type : Progressive
Bits/(Pixel*Frame) : 0.043
Stream size : 594 MiB (92%)
Default : No
Forced : No
Color range : Limited
Color primaries : BT.709
Transfer characteristics : BT.709
Matrix coefficients : BT.709

Audio #1
ID : 2
Format : E-AC-3
Format/Info : Enhanced Audio Coding 3
Format settings, Endianness : Big
Codec ID : A_EAC3
Duration : 18 min 30 s
Bit rate mode : Constant
Bit rate : 192 kb/s
Channel(s) : 2 channels
Channel positions : Front: L R
Sampling rate : 48.0 kHz
Frame rate : 187.500 FPS (256 SPF)
Compression mode : Lossy
Delay relative to video : 100 ms
Stream size : 25.4 MiB (4%)
Title : French
Language : French
Service kind : Complete Main
Default : Yes
Forced : No

Audio #2
ID : 3
Format : E-AC-3
Format/Info : Enhanced Audio Coding 3
Format settings, Endianness : Big
Codec ID : A_EAC3
Duration : 18 min 30 s
Bit rate mode : Constant
Bit rate : 192 kb/s
Channel(s) : 2 channels
Channel positions : Front: L R
Sampling rate : 48.0 kHz
Frame rate : 187.500 FPS (256 SPF)
Compression mode : Lossy
Delay relative to video : 200 ms
Stream size : 25.4 MiB (4%)
Title : English
Language : English
Service kind : Complete Main
Default : No
Forced : No

Text #1
ID : 4
Format : UTF-8
Codec ID : S_TEXT/UTF8
Codec ID/Info : UTF-8 Plain Text
Duration : 18 min 25 s
Bit rate : 86 b/s
Count of elements : 392
Stream size : 11.6 KiB (0%)
Title : French
Language : French
Default : No
Forced : No

Text #2
ID : 5
Format : UTF-8
Codec ID : S_TEXT/UTF8
Codec ID/Info : UTF-8 Plain Text
Duration : 18 min 25 s
Bit rate : 98 b/s
Count of elements : 444
Stream size : 13.3 KiB (0%)
Title : French (SDH)
Language : French
Default : No
Forced : No





Young Sheldon S03E18


Young Sheldon S03E18


Young Sheldon S03E18


Young Sheldon S03E18


Young Sheldon S03E18

All episodes