Index
# A B C D E F G H I J K L M N O P Q R S T U V W Y Z
Tags
Language
Tags

Featured TV Shows


Young Sheldon S04E17

Posted By: Tavaz
720p (HD) / HDTV IMDb
Young Sheldon S04E17

Young Sheldon S04E17
HDTV | MKV | 1280x720 | Čeština | H264 @ 1830 kbps | AC-3 @ 224 kbps | 17 min 26 s | 256 MiB
Genre: Comedy


The early life of child genius Sheldon Cooper, later seen in The Big Bang Theory.

bad2507b33c04772a16c24b15c2e5d10.mkv (256.4 MB)



General
Unique ID : 205968357256198756178760126397577579744 (0x9AF4100C083B54634A91DA2C020A4CE0)
Complete name : ./bad2507b33c04772a16c24b15c2e5d10.mkv
Format : Matroska
Format version : Version 4 / Version 2
File size : 256 MiB
Duration : 17 min 26 s
Overall bit rate : 2 056 kb/s
Encoded date : UTC 2021-07-31 13:34:45
Writing application : mkvmerge v59.0.0 ('Shining Star') 64-bit
Writing library : libebml v1.4.2 + libmatroska v1.6.4

Video
ID : 1
Format : AVC
Format/Info : Advanced Video Codec
Format profile : High@L4.1
Format settings : CABAC / 8 Ref Frames
Format settings, CABAC : Yes
Format settings, RefFrames : 8 frames
Codec ID : V_MPEG4/ISO/AVC
Duration : 17 min 26 s
Bit rate : 1 830 kb/s
Width : 1 280 pixels
Height : 720 pixels
Display aspect ratio : 16:9
Frame rate mode : Constant
Frame rate : 25.000 FPS
Color space : YUV
Chroma subsampling : 4:2:0
Bit depth : 8 bits
Scan type : Progressive
Bits/(Pixel*Frame) : 0.079
Stream size : 228 MiB (89%)
Writing library : x264 core 164 r3065+55M 280faca t_mod_New [(8 & 10)-bit@all X86_64]
Encoding settings : cabac=1 / ref=8 / deblock=1:0:0 / analyse=0x3:0x133 / me=umh / subme=9 / psy=1 / fade_compensate=0.00 / psy_rd=1.00:0.00 / mixed_ref=1 / me_range=16 / chroma_me=1 / trellis=2 / 8x8dct=1 / cqm=0 / deadzone=21,11 / fast_pskip=1 / chroma_qp_offset=-2 / threads=24 / lookahead_threads=2 / sliced_threads=0 / nr=0 / decimate=1 / interlaced=0 / bluray_compat=0 / constrained_intra=0 / fgo=0 / bframes=3 / b_pyramid=2 / b_adapt=2 / b_bias=0 / direct=3 / weightb=1 / open_gop=0 / weightp=2 / keyint=250 / keyint_min=25 / scenecut=40 / intra_refresh=0 / rc_lookahead=60 / rc=crf / mbtree=1 / crf=18.0000 / qcomp=0.60 / qpmin=0:0:0 / qpmax=69:69:69 / qpstep=4 / ip_ratio=1.40 / aq=1:1.00 / aq-sensitivity=10.00 / aq-factor=1.00:1.00:1.00 / aq2=0 / aq3=0
Language : Czech
Default : Yes
Forced : No
Color range : Limited
Matrix coefficients : BT.709

Audio
ID : 2
Format : AC-3
Format/Info : Audio Coding 3
Format settings, Endianness : Big
Codec ID : A_AC3
Duration : 17 min 26 s
Bit rate mode : Constant
Bit rate : 224 kb/s
Channel(s) : 2 channels
Channel positions : Front: L R
Sampling rate : 48.0 kHz
Frame rate : 31.250 FPS (1536 SPF)
Bit depth : 16 bits
Compression mode : Lossy
Delay relative to video : 50 ms
Stream size : 27.9 MiB (11%)
Language : Czech
Service kind : Complete Main
Default : Yes
Forced : No





Young Sheldon S04E17


Young Sheldon S04E17


Young Sheldon S04E17


Young Sheldon S04E17


Young Sheldon S04E17

All episodes