Index
# A B C D E F G H I J K L M N O P Q R S T U V W Y Z
Tags
Language
Tags

Featured TV Shows


Young Sheldon S04E18

Posted By: Tavaz
1080p (FullHD) / WEBRip IMDb
Young Sheldon S04E18

Young Sheldon S04E18
WEBRip | MKV | 1920x1080 | English | H264 @ 5036 kbps | E-AC-3 @ 640 kbps | 18 min 18 s | 758 MiB
Subtitles: English
Genre: Comedy


The early life of child genius Sheldon Cooper, later seen in The Big Bang Theory.

0f98636453134fdb87a0a13278ec47c7.mkv (758.5 MB)



General
Unique ID : 191007897965642690887649083485253307362 (0x8FB2C874B256879B742D874D38D48BE2)
Complete name : ./0f98636453134fdb87a0a13278ec47c7.mkv
Format : Matroska
Format version : Version 4 / Version 2
File size : 758 MiB
Duration : 18 min 18 s
Overall bit rate : 5 792 kb/s
Writing application : mkvmerge v49.0.0 ('Sick Of Losing Soulmates') 64-bit
Writing library : libebml v1.4.0 + libmatroska v1.6.1

Video
ID : 1
Format : AVC
Format/Info : Advanced Video Codec
Format profile : High@L4
Format settings : CABAC / 4 Ref Frames
Format settings, CABAC : Yes
Format settings, RefFrames : 4 frames
Codec ID : V_MPEG4/ISO/AVC
Duration : 18 min 18 s
Bit rate mode : Constant
Bit rate : 5 037 kb/s
Nominal bit rate : 10 000 kb/s
Width : 1 920 pixels
Height : 1 080 pixels
Display aspect ratio : 16:9
Frame rate mode : Constant
Frame rate : 24.000 FPS
Color space : YUV
Chroma subsampling : 4:2:0
Bit depth : 8 bits
Scan type : Progressive
Bits/(Pixel*Frame) : 0.101
Stream size : 660 MiB (87%)
Default : Yes
Forced : No
Color range : Limited
Color primaries : BT.709
Transfer characteristics : BT.709
Matrix coefficients : BT.709

Audio
ID : 2
Format : E-AC-3
Format/Info : Enhanced Audio Coding 3
Format settings, Endianness : Big
Codec ID : A_EAC3
Duration : 18 min 18 s
Bit rate mode : Constant
Bit rate : 640 kb/s
Channel(s) : 6 channels
Channel positions : Front: L C R, Side: L R, LFE
Sampling rate : 48.0 kHz
Frame rate : 187.500 FPS (256 SPF)
Compression mode : Lossy
Stream size : 83.8 MiB (11%)
Language : English
Service kind : Complete Main
Default : Yes
Forced : No

Text
ID : 3
Format : UTF-8
Codec ID : S_TEXT/UTF8
Codec ID/Info : UTF-8 Plain Text
Title : English
Language : English
Default : No
Forced : No





Young Sheldon S04E18


Young Sheldon S04E18


Young Sheldon S04E18


Young Sheldon S04E18


Young Sheldon S04E18

All episodes